纳瓦隆大炮[国英多音轨/中英字幕].The.Guns.of.Navarone.1961.BluRay.1080p.x265.10bit.2Audio-MiniHD 6.46GB

版主小s 11天前 28

✔资源类型:暂未分类   ✔电影年份:更 早   ✔电影地区:欧美   ✔电影分类:剧情

◎标  题 纳瓦隆大炮
◎译  名 六壮士(港 / 台)
◎片  名 The Guns of Navarone
◎年  代 1961
◎产  地 英国 / 美国
◎类  别 剧情 / 动作 / 战争 / 冒险
◎语  言 英语 / 希腊语 / 德语
◎上映日期 1961-04-27
◎IMDb评分 7.5/10 (48819人评价)
◎IMDb链接 https://www.imdb.com/title/tt0054953/
◎豆瓣评分 7.6/10 (1350人评价)
◎豆瓣链接 https://movie.douban.com/subject/1298721/
◎片  长 158分钟
◎导  演 J·李·汤普森 J. Lee Thompson
       亚历山大·麦肯德里克 Alexander Mackendrick
◎编  剧 阿利斯泰尔·麦克林 Alistair MacLean
       卡尔·福尔曼 Carl Foreman
◎演  员 格利高里·派克 Gregory Peck
       大卫·尼文 David Niven
       安东尼·奎恩 Anthony Quinn
       斯坦利·贝克 Stanley Baker
       安东尼·奎尔 Anthony Quayle
       詹姆斯·达伦 James Darren
       艾琳·帕帕斯 Irene Papas
       阿尔贝特·利文 Albert Lieven
       沃尔特·戈塔尔 Walter Gotell
       珀西·赫伯特 Percy Herbert
       Tutte Lemkow Tutte Lemkow
       Rosemary Nicols Rosemary Nicols
       Christopher Rhodes Christopher Rhodes
       鲍勃·西蒙斯 Bob Simmons
       Michael Trubshawe Michael Trubshawe
       诺曼·伍德兰 Norman Wooland
       乔治·迈克尔 George Mikell
       Wolf Frees Wolf Frees
       卡罗尔·杜瑞 Carl Duering
       艾伦·卡思伯森 Allan Cuthbertson
       布莱恩·福布斯 Bryan Forbes
       詹姆斯·罗伯逊·贾斯蒂 James Robertson Justice
       Peter Grant Peter Grant
       迈克尔·萨恩 Michael Sarne
       理查德·哈里斯 Richard Harris
       吉娅·斯卡拉 Gia Scala
       Victor Beaumont Victor Beaumont
       维克多·布鲁诺 Victor Buono
       卡尔·福尔曼 Carl Foreman
       Cecil F. Ford Cecil F. Ford
       迪米特里·迪奥姆金 Dimitri Tiomkin
       奥斯瓦尔德·莫里斯 Oswald Morris
       艾兰·奥斯比斯顿 Alan Osbiston
       杰弗里·德雷克 Geoffrey Drake
       瓦利·施内德曼 Wally Schneiderman
       彼得·叶茨 Peter Yates
       约翰·威廉姆斯 John Williams

◎标  签 二战 / 战争 / 美国 / 格里高利·派克 / 1961 / 经典 / 美国电影 / 英国

◎简  介
  纳粹军队在爱琴海上的某希腊小岛上,安装了两支火力超强的巨炮,威协到邻近岛屿英军的安危,于是六名同盟国与希腊士兵受英国之命,在军官法兰克林少校的带领下潜入该岛,与岛上游击队会合后,执行摧毁巨炮的任务。但是,当法兰克林少校在任务中受伤后,凯西上校因为经验不足而坏了大事。不久后,他们发觉小队中有叛徒,导致凯西上校、爆破专家米勒下士与希腊游击队员安德瑞亚之间起了嫌隙。这六名壮士是否能完成这项艰巨的任务呢?
  1. ##### MediaInfo ######
  2. General
  3. Unique ID                                : 171392986628958360901642042883489134723 (0x80F116A94A5AA8A5A9B8D90B22E3F883)
  4. Complete name                            : The.Guns.of.Navarone.1961.BluRay.1080p.x265.10bit.2Audio-MiniHD.mkv
  5. Format                                   : Matroska
  6. Format version                           : Version 4
  7. File size                                : 6.46 GiB
  8. Duration                                 : 2 h 36 min
  9. Overall bit rate                         : 5 917 kb/s
  10. Encoded date                             : UTC 2017-07-25 07:50:37
  11. Writing application                      : mkvmerge v11.0.0 ('Alive') 64bit
  12. Writing library                          : libebml v1.3.4 + libmatroska v1.4.5
  13. Video
  14. ID                                       : 1
  15. Format                                   : HEVC
  16. Format/Info                              : High Efficiency Video Coding
  17. Codec ID                                 : V_MPEGH/ISO/HEVC
  18. Duration                                 : 2 h 36 min
  19. Bit rate                                 : 4 712 kb/s
  20. Width                                    : 1 920 pixels
  21. Height                                   : 816 pixels
  22. Display aspect ratio                     : 2.35:1
  23. Frame rate mode                          : Constant
  24. Frame rate                               : 23.976 (24000/1001/53354) FPS
  25. Bits/(Pixel*Frame)                       : 0.125
  26. Stream size                              : 5.15 GiB (80%)
  27. Default                                  : Yes
  28. Forced                                   : No
  29. Audio #1
  30. ID                                       : 2
  31. Format                                   : AC-3
  32. Format/Info                              : Audio Coding 3
  33. Commercial name                          : Dolby Digital
  34. Codec ID                                 : A_AC3
  35. Duration                                 : 2 h 36 min
  36. Bit rate mode                            : Constant
  37. Bit rate                                 : 640 kb/s
  38. Channel(s)                               : 6 channels
  39. Channel layout                           : L R C LFE Ls Rs
  40. Sampling rate                            : 48.0 kHz
  41. Frame rate                               : 31.250 FPS (1536 SPF)
  42. Compression mode                         : Lossy
  43. Stream size                              : 716 MiB (11%)
  44. Language                                 : English
  45. Service kind                             : Complete Main
  46. Default                                  : Yes
  47. Forced                                   : No
  48. Audio #2
  49. ID                                       : 3
  50. Format                                   : AC-3
  51. Format/Info                              : Audio Coding 3
  52. Commercial name                          : Dolby Digital
  53. Codec ID                                 : A_AC3
  54. Duration                                 : 2 h 36 min
  55. Bit rate mode                            : Constant
  56. Bit rate                                 : 448 kb/s
  57. Channel(s)                               : 6 channels
  58. Channel layout                           : L R C LFE Ls Rs
  59. Sampling rate                            : 48.0 kHz
  60. Frame rate                               : 31.250 FPS (1536 SPF)
  61. Compression mode                         : Lossy
  62. Stream size                              : 501 MiB (8%)
  63. Language                                 : Chinese
  64. Service kind                             : Complete Main
  65. Default                                  : No
  66. Forced                                   : No
  67. Text #1
  68. ID                                       : 4
  69. Format                                   : PGS
  70. Muxing mode                              : zlib
  71. Codec ID                                 : S_HDMV/PGS
  72. Codec ID/Info                            : Picture based subtitle format used on BDs/HD-DVDs
  73. Language                                 : English
  74. Default                                  : Yes
  75. Forced                                   : No
  76. Text #2
  77. ID                                       : 5
  78. Format                                   : PGS
  79. Muxing mode                              : zlib
  80. Codec ID                                 : S_HDMV/PGS
  81. Codec ID/Info                            : Picture based subtitle format used on BDs/HD-DVDs
  82. Language                                 : Chinese
  83. Default                                  : No
  84. Forced                                   : No
  85. Text #3
  86. ID                                       : 6
  87. Format                                   : PGS
  88. Muxing mode                              : zlib
  89. Codec ID                                 : S_HDMV/PGS
  90. Codec ID/Info                            : Picture based subtitle format used on BDs/HD-DVDs
  91. Language                                 : Chinese
  92. Default                                  : No
  93. Forced                                   : No
  94. Menu
  95. 00:00:00.000                             : en:Chapter 01
  96. 00:12:57.610                             : en:Chapter 02
  97. 00:17:57.076                             : en:Chapter 03
  98. 00:24:11.408                             : en:Chapter 04
  99. 00:32:43.920                             : en:Chapter 05
  100. 00:46:16.857                             : en:Chapter 06
  101. 00:59:17.262                             : en:Chapter 07
  102. 01:05:08.863                             : en:Chapter 08
  103. 01:13:27.653                             : en:Chapter 09
  104. 01:21:01.481                             : en:Chapter 10
  105. 01:29:46.464                             : en:Chapter 11
  106. 01:38:32.239                             : en:Chapter 12
  107. 01:51:56.126                             : en:Chapter 13
  108. 02:08:41.213                             : en:Chapter 14
  109. 02:17:32.994                             : en:Chapter 15
  110. 02:28:01.205                             : en:Chapter 16





此处一般会放置磁力链或种子下载链接,不过此链接需要注册会员才能看到,点击“立即注册”
磁力链下载【下载链接仅对注册会员开放,登陆后可见】
BT9527电影天堂 1、BT9527电影天堂提供的BT文件均来源于互联网抓取,只供网友学习交流、技术提升使用。
2、我们遵守BitTorrent点对点协议原则,任何版权问题请联系原资源发布商,我们不处理任何版权纠纷,谢谢!如有争议请联系邮箱:BT9527#hotmail.com(#换成@)
3、如果您发现某页面或地址有错误,请联系站长邮箱BT9527#hotmail.com(#换成@),我们会尽快处理。您的热心是对BT9527电影天堂最大的支持。
4、本站建议去正规影院观看电影以支持电影行业发展。
最新回复 (0)

你可以在 登录 or 注册 后,对此帖发表评论!

返回
发新帖