最初的梦想[中文字幕].Chhichhore.2019.1080p.WEB-DL.AAC2.0.H.264-CTRLWEB 3.84GB

版主小s 3月前 134

✔资源类型:WEB-1080P   ✔电影年份:2019   ✔电影地区:印度   ✔电影分类:剧情

◎译  名 最初的梦想 / 万万没想到(台)
◎片  名 Chhichhore
◎年  代 2019
◎产  地 印度
◎类  别 剧情 / 喜剧
◎语  言 印地语
◎上映日期 2022-01-07(中国大陆) / 2019-09-06(印度)
◎IMDb链接 https://www.imdb.com/title/tt9052870/
◎豆瓣评分 6.9/10 (23262人评价)
◎豆瓣链接 https://movie.douban.com/subject/34787747/
◎片  长 143分钟
◎导  演 涅提·蒂瓦里 Nitesh Tiwari (id:1366907)
◎编  剧 比于什·古普塔 Piyush Gupta (id:1372455)
       尼基尔·麦罗特拉 Nikhil Mehrotra (id:1385160)
       涅提·蒂瓦里 Nitesh Tiwari (id:1366907)
◎演  员 苏尚特·辛格·拉吉普特 Sushant Singh Rajput (id:1330066)
       施拉德哈·卡普尔 Shraddha Kapoor (id:1337680)
       瓦伦·沙玛 Varun Sharma (id:1427052)
       普拉提克·巴巴尔 Prateik Babbar (id:1312191)
       塔希尔·拉吉·巴辛 Tahir Raj Bhasin (id:1427342)
       纳文·波利希蒂 Naveen Polishetty (id:1427343)
       图沙尔·潘迪 Tushar Pandey (id:1427344)
       萨哈什·库马尔·舒克拉 Saharsh Kumar Shukla (id:1427345)
       罗希特·乔汉 Rohit Chauhan (id:1427346)
       纳尼什·尼尔 Nalneesh Neel (id:1427363)
       阿比纳夫·巴特查吉 Abhinav Bhattacharjee (id:1427364)
       尼尔·多克特 Neil Dhokte (id:1427365)
       艾比希·约瑟夫·乔治 Abishek Joseph George (id:1427366)
       维沙尔·古普塔 Vishal Gupta (id:1427367)
       阿姆里特·卡什亚普 Amrit Kashyap (id:1427368)
       什沙尔·夏尔马 Shishir Sharma (id:1353716)

◎简  介
  被帕塔克(苏尚特·辛格·拉吉普特 饰)寄予厚望的儿子拉加夫高考失利,因无法忍受“失败者”的标签而发生意外。面对病床前丧失信心的儿子,帕塔克讲述了大学时代,自己与朋友们以及前妻玛雅(施拉达·卡普尔 饰),为了完成“失败者”的逆袭,在冠军联赛中“损招”尽出的故事。一段啼笑皆非的青春往事揭开帷幕,他们会实现最初的梦想吗?
  1. ##### MediaInfo ######
  2. General
  3. Unique ID                                : 128859305581019620326331040751829158750 (0x60F1664726119657C1A9524F62CC8B5E)
  4. Complete name                            : Chhichhore.2019.1080p.WEB-DL.AAC2.0.H.264-CTRLWEB.mkv
  5. Format                                   : Matroska
  6. Format version                           : Version 4
  7. File size                                : 3.84 GiB
  8. Duration                                 : 2 h 23 min
  9. Overall bit rate                         : 3 828 kb/s
  10. Encoded date                             : UTC 2022-06-03 12:23:14
  11. Writing application                      : mkvmerge v65.0.0 ('Too Much') 64-bit
  12. Writing library                          : libebml v1.4.2 + libmatroska v1.6.4
  13. Video
  14. ID                                       : 1
  15. Format                                   : AVC
  16. Format/Info                              : Advanced Video Codec
  17. Format profile                           : High@L4.1
  18. Format settings                          : CABAC / 1 Ref Frames
  19. Format settings, CABAC                   : Yes
  20. Format settings, Reference frames        : 1 frame
  21. Format settings, GOP                     : M=1, N=60
  22. Codec ID                                 : V_MPEG4/ISO/AVC
  23. Duration                                 : 2 h 23 min
  24. Bit rate mode                            : Constant
  25. Bit rate                                 : 3 700 kb/s
  26. Nominal bit rate                         : 4 000 kb/s
  27. Width                                    : 1 920 pixels
  28. Height                                   : 1 080 pixels
  29. Display aspect ratio                     : 16:9
  30. Frame rate mode                          : Constant
  31. Frame rate                               : 29.970 (30000/1001/53354) FPS
  32. Color space                              : YUV
  33. Chroma subsampling                       : 4:2:0
  34. Bit depth                                : 8 bits
  35. Scan type                                : Progressive
  36. Bits/(Pixel*Frame)                       : 0.060
  37. Stream size                              : 3.71 GiB (97%)
  38. Language                                 : English
  39. Default                                  : Yes
  40. Forced                                   : No
  41. Audio
  42. ID                                       : 2
  43. Format                                   : AAC LC
  44. Format/Info                              : Advanced Audio Codec Low Complexity
  45. Codec ID                                 : A_AAC-2
  46. Duration                                 : 2 h 23 min
  47. Bit rate                                 : 125 kb/s
  48. Channel(s)                               : 2 channels
  49. Channel layout                           : L R
  50. Sampling rate                            : 48.0 kHz
  51. Frame rate                               : 46.875 FPS (1024 SPF)
  52. Compression mode                         : Lossy
  53. Stream size                              : 129 MiB (3%)
  54. Language                                 : Hindi
  55. Default                                  : Yes
  56. Forced                                   : No
  57. Text #1
  58. ID                                       : 3
  59. Format                                   : UTF-8
  60. Codec ID                                 : S_TEXT/UTF8
  61. Codec ID/Info                            : UTF-8 Plain Text
  62. Duration                                 : 2 h 20 min
  63. Bit rate                                 : 40 b/s
  64. Count of elements                        : 2068
  65. Stream size                              : 42.0 KiB (0%)
  66. Title                                    : Chinese Simplified
  67. Language                                 : Chinese
  68. Default                                  : Yes
  69. Forced                                   : No
  70. Text #2
  71. ID                                       : 4
  72. Format                                   : UTF-8
  73. Codec ID                                 : S_TEXT/UTF8
  74. Codec ID/Info                            : UTF-8 Plain Text
  75. Duration                                 : 2 h 20 min
  76. Bit rate                                 : 40 b/s
  77. Count of elements                        : 2068
  78. Stream size                              : 42.0 KiB (0%)
  79. Title                                    : Chinese Traditional
  80. Language                                 : Chinese
  81. Default                                  : Yes
  82. Forced                                   : No





此处一般会放置磁力链或种子下载链接,不过此链接需要注册会员才能看到,点击“立即注册”
磁力链下载【下载链接仅对注册会员开放,登陆后可见】
BT9527电影天堂 1、BT9527电影天堂提供的BT文件均来源于互联网抓取,只供网友学习交流、技术提升使用。
2、我们遵守BitTorrent点对点协议原则,任何版权问题请联系原资源发布商,我们不处理任何版权纠纷,谢谢!如有争议请联系邮箱:BT9527#hotmail.com(#换成@)
3、如果您发现某页面或地址有错误,请联系站长邮箱BT9527#hotmail.com(#换成@),我们会尽快处理。您的热心是对BT9527电影天堂最大的支持。
4、本站建议去正规影院观看电影以支持电影行业发展。
最新回复 (0)

你可以在 登录 or 注册 后,对此帖发表评论!

返回