波西米亚狂想曲[简英特效字幕].Bohemian.Rhapsody.2018.2160p.BluRay.x265.10bit.HDR10Plus.DTS-X.7.1-MiniHD 19.97GB

版主小s 3月前 158

✔资源类型:BD-4K   ✔电影年份:2018   ✔电影地区:欧美   ✔电影分类:剧情

◎译  名 波西米亚狂想曲 / 波希米亚狂想曲:摇滚传说(港) / 波希米亚狂想曲(台)
◎片  名 Bohemian Rhapsody
◎年  代 2018
◎产  地 英国 / 美国
◎类  别 剧情 / 同性 / 音乐 / 传记
◎语  言 英语
◎上映日期 2019-03-22(中国大陆) / 2018-11-02(美国)
◎IMDb链接 https://www.imdb.com/title/tt1727824/
◎豆瓣评分 8.6/10 (543505人评价)
◎豆瓣链接 https://movie.douban.com/subject/5300054/
◎片  长 135分钟
◎导  演 布莱恩·辛格 Bryan Singer (id:1049586)
◎编  剧 安东尼·麦卡滕 Anthony McCarten (id:1344819)
       皮特·摩根 Peter Morgan (id:1000371)
       皇后乐队 Queen (id:1448193)
◎演  员 拉米·马雷克 Rami Malek (id:1044903)
       本·哈迪 Ben Hardy (id:1344763)
       约瑟夫·梅泽罗 Joseph Mazzello (id:1049517)
       格威利姆·李 Gwilym Lee (id:1268856)
       艾伦·里奇 Allen Leech (id:1045284)
       露西·宝通 Lucy Boynton (id:1310841)
       艾丹·吉伦 Aidan Gillen (id:1044961)
       汤姆·霍兰德 Tom Hollander (id:1049625)
       麦克·梅尔斯 Mike Myers (id:1017899)
       阿隆·麦克卡斯克 Aaron McCusker (id:1329521)
       梅内卡·达斯 Meneka Das (id:1171311)
       迪基·博 Dickie Beau (id:1406556)
       蒂姆· 普莱斯特 Tim Plester (id:1050406)
       杰克·罗思 Jack Roth (id:1337581)
       马克斯·班内特 Max Bennett (id:1336562)
       基兰·哈德卡斯托 Kieran Hardcastle (id:1391967)
       罗斯·格林 Ross Green (id:1367208)
       布鲁斯·麦克金伦 Bruce Mackinnon (id:1173535)
       米歇尔·邓肯 Michelle Duncan (id:1089672)
       马特·格林伍德 Matt Greenwood (id:1357520)
       罗茜·本杰明 Rosy Benjamin (id:1367758)
       约翰·奥特曼 John Ottman (id:1013701)
       詹姆斯·华莱士 James Wallace (id:1006353)
       文森特·阿德里安 Vincent Andriano (id:1355308)
       拉斯科·阿特金斯 Lasco Atkins (id:1346147)
       乔纳森·奇塔姆 Jonathan Cheetham (id:1035417)
       迈克尔·科布 Michael Cobb (id:1392814)
       耶稣·加洛 Jesús Gallo (id:1402984)
       亚当·兰伯特 Adam Lambert (id:1004676)
       豪尔赫·莱昂·马丁内斯 Jorge Leon Martinez (id:1340070)
       杰森· 莱恩斯 Jason Lines (id:1394068)
       伊斯雷尔·鲁兹 Israel Ruiz (id:1199375)
       普丽亚·布莱克本 Priya Blackburn (id:1409780)
       安德鲁·鲍尔曼 Andrew Bowerman (id:1410054)
       罗伊斯·克罗宁 Royce Cronin (id:1410053)
       埃斯·巴蒂 Ace Bhatti (id:1409778)
       菲利普·安德鲁 Philip Andrew (id:1409776)
       亚当·劳夫 Adam Rauf (id:1409777)
       德默特·墨菲 Dermot Murphy (id:1429387)
       罗伯特·德尼罗 Robert De Niro (id:1054445)
       德克斯特·弗莱彻 Dexter Fletcher (id:1007028)
       简·罗森塔尔 Jane Rosenthal (id:1050586)
       布赖恩·梅 Brian May (id:1055246)
       罗杰·泰勒 Roger Taylor (id:1055440)
       阿诺恩·米尔坎 Arnon Milchan (id:1037087)
       格拉汉姆·金 Graham King (id:1036790)
       吉姆·比奇 Jim Beach (id:1278139)
       布莱恩·辛格 Bryan Singer (id:1049586)
       皇后乐队 Queen (id:1448193)
       纽顿·托马斯·西格尔 Newton Thomas Sigel (id:1276570)
       约翰·奥特曼 John Ottman (id:1013701)
       戴维·辛德 David Hindle (id:1466527)
       朱利安·戴 Julian Day (id:1338280)
       保罗·马瑟 Paul Massey (id:1124315)
       妮娜·哈特斯通 Nina Hartstone (id:1409565)
       约翰·沃赫斯特 John Warhurst (id:1305983)
       约翰·卡萨利 John Casali (id:1409566)
       蒂姆·卡弗金 Tim Cavagin (id:1280309)
       阿曼·加洛 Aman Gahlot (id:1411055)
       英德里普·拉哈 Indreep Raha (id:1411062)

◎简  介
  本片是对皇后乐队、传奇主唱弗雷迪·莫库里以及他们音乐的致敬盛宴,这是一段充满爱、痛苦、接纳和音乐的旅程。                                    
                                弗雷迪·莫库里(拉米·马雷克 饰)曾是希思罗机场的一名普通搬运工,对音乐满腔热血的他,与布莱恩·梅(格威利姆·李 饰)、罗杰·泰勒(本·哈迪 饰)、约 翰·迪肯(约瑟夫·梅泽罗 饰)组成皇后乐队。这个殿堂级乐队的从无到有,从疏离到重聚,从低谷到巅峰,仿佛就是弗雷迪一生的缩影。在最后的日子里,弗雷迪做了生命中最重要的决定——在音乐史上最伟大的“拯救生命”大型摇滚乐演唱会上,将所有热血付诸于歌声。

◎获奖情况 (共40项)
  第91届奥斯卡金像奖 (2019)
  最佳影片(提名)
   └──格拉汉姆·金 (id:1036790)
  最佳男主角
   └──拉米·马雷克 (id:1044903)
  最佳剪辑
   └──约翰·奥特曼 (id:1013701)
  最佳混音
  最佳音效剪辑

  第76届金球奖 (2019)
  电影类 最佳剧情片
  电影类 剧情片最佳男主角
   └──拉米·马雷克 (id:1044903)

  第72届英国电影学院奖 (2019)
  电影奖 最佳英国影片(提名)
  电影奖 最佳男主角
   └──拉米·马雷克 (id:1044903)
  电影奖 最佳摄影(提名)
   └──纽顿·托马斯·西格尔 (id:1276570)
  电影奖 最佳剪辑(提名)
   └──约翰·奥特曼 (id:1013701)
  电影奖 最佳化妆/发型(提名)
  电影奖 最佳服装设计(提名)
   └──朱利安·戴 (id:1338280)
  电影奖 最佳音效

  第42届日本电影学院奖 (2019)
  最佳外语片

  第64届意大利大卫奖 (2019)
  最佳外语片(提名)

  第28届MTV电影奖 (2019)
  MTV电影奖 最佳表演(提名)
   └──拉米·马雷克 (id:1044903)

  第61届日本电影蓝丝带奖 (2019)
  最佳外国影片
  年度十佳海外影片

  第25届美国演员工会奖 (2019)
  电影奖 最佳男主角
   └──拉米·马雷克 (id:1044903)
  电影奖 最佳群戏(提名)

  第30届美国制片人工会奖 (2019)
  最佳电影制片人奖(提名)

  第69届美国剪辑工会奖 (2019)
  剧情片最佳剪辑
   └──约翰·奥特曼 (id:1013701)

  第23届美国艺术指导工会奖 (2019)
  电影奖 最佳历史电影艺术指导(提名)
   └──亚伦·海耶 (id:1042923)

  第21届美国服装设计工会奖 (2019)
  年代电影最佳服装设计(提名)
   └──朱利安·戴 (id:1338280)

  第6届美国化妆及发型设计工会奖 (2019)
  电影类最佳年代戏化妆(提名)
  电影类最佳年代戏发型设计(提名)

  第17届美国视觉效果协会奖 (2019)
  最佳电影辅助视觉效果(提名)

  第66届美国音效剪辑协会奖 (2019)
  金卷轴奖 最佳电影对白剪辑
  金卷轴奖 最佳音乐片音乐剪辑

  第55届美国声音效果协会奖 (2019)
  真人电影最佳音效

  第24届美国评论家选择电影奖 (2019)
  最佳男主角(提名)
   └──拉米·马雷克 (id:1044903)
  最佳服装设计(提名)
  最佳发型化妆(提名)

  第23届金卫星奖 (2019)
  电影部门 喜剧/音乐片最佳男主角
   └──拉米·马雷克 (id:1044903)

  第17届华盛顿影评人协会奖 (2018)
  最佳男主角(提名)
   └──拉米·马雷克 (id:1044903)

  第31届芝加哥影评人协会奖 (2018)
  最佳男主角(提名)
   └──拉米·马雷克 (id:1044903)

  第17届旧金山影评人协会奖 (2018)
  最佳男主角(提名)
   └──拉米·马雷克 (id:1044903)

  第6届豆瓣电影年度榜单 (2019)
  评分最高的外语电影(提名)

  第5届豆瓣电影年度榜单 (2018)
  年度电影原声

  1. ##### MediaInfo ######
  2. General
  3. Unique ID                                : 56962518814184207143510214378617972803 (0x2ADA95027CA0418E7B059226990E2843)
  4. Complete name                            : Bohemian.Rhapsody.2018.2160p.BluRay.x265.10bit.HDR10Plus.DTS-X.7.1-MiniHD.mkv
  5. Format                                   : Matroska
  6. Format version                           : Version 4
  7. File size                                : 20.0 GiB
  8. Duration                                 : 2 h 14 min
  9. Overall bit rate mode                    : Variable
  10. Overall bit rate                         : 21.2 Mb/s
  11. Movie name                               : Bohemian.Rhapsody.2018.2160p.BluRay.REMUX.HEVC.DTS-HD.MA.TrueHD.7.1.Atmos-FGT
  12. Encoded date                             : UTC 2020-03-24 07:04:45
  13. Writing application                      : mkvmerge v44.0.0 ('Domino') 64-bit
  14. Writing library                          : libebml v1.3.10 + libmatroska v1.5.2
  15. Cover                                    : Yes
  16. Attachments                              : small_cover.jpg / small_cover_land.jpg / cover.jpg / cover_land.jpg
  17. Video
  18. ID                                       : 1
  19. Format                                   : HEVC
  20. Format/Info                              : High Efficiency Video Coding
  21. Format profile                           : Main 10@L5.1@High
  22. HDR format                               : SMPTE ST 2094 App 4, Version 1, HDR10+ Profile A compatible
  23. Codec ID                                 : V_MPEGH/ISO/HEVC
  24. Duration                                 : 2 h 14 min
  25. Bit rate                                 : 17.0 Mb/s
  26. Width                                    : 3 840 pixels
  27. Height                                   : 1 608 pixels
  28. Display aspect ratio                     : 2.40:1
  29. Frame rate mode                          : Constant
  30. Frame rate                               : 23.976 (24000/1001/53354) FPS
  31. Color space                              : YUV
  32. Chroma subsampling                       : 4:2:0
  33. Bit depth                                : 10 bits
  34. Bits/(Pixel*Frame)                       : 0.115
  35. Stream size                              : 16.0 GiB (80%)
  36. Writing library                          : x265 3.3+2-gbe2d82093:[Windows][GCC 10.0.1][64 bit] 10bit
  37. Encoding settings                        : cpuid=533541111039 / frame-threads=6 / numa-pools=24 / wpp / no-pmode / pme / no-psnr / no-ssim / log-level=2 / input-csp=1 / input-res=3840x1608 / interlace=0 / total-frames=193656 / level-idc=51 / high-tier=1 / uhd-bd=0 / ref=4 / no-allow-non-conformance / repeat-headers / annexb / aud / hrd / info / hash=0 / no-temporal-layers / no-open-gop / min-keyint=1 / keyint=360 / gop-lookahead=0 / bframes=8 / b-adapt=2 / b-pyramid / bframe-bias=0 / rc-lookahead=60 / lookahead-slices=0 / NTMzNTQ=uuDQuD2mJt9fsCf / scenecut=40 / hist-scenecut=0 / radl=0 / no-splice / no-intra-refresh / ctu=64 / min-cu-size=8 / no-rect / no-amp / max-tu-size=32 / tu-inter-depth=2 / tu-intra-depth=2 / limit-tu=0 / rdoq-level=1 / dynamic-rd=0.00 / no-ssim-rd / signhide / no-tskip / nr-intra=0 / nr-inter=0 / no-constrained-intra / no-strong-intra-smoothing / max-merge=4 / limit-refs=0 / limit-modes / me=3 / subme=4 / merange=40 / temporal-mvp / no-frame-dup / no-hme / weightp / weightb / no-analyze-src-pics / deblock=-1:-1 / no-sao / no-sao-non-deblock / rd=4 / selective-sao=0 / no-early-skip / rskip / no-fast-intra / no-tskip-fast / no-cu-lossless / b-intra / no-splitrd-skip / rdpenalty=1 / psy-rd=2.00 / psy-rdoq=4.00 / no-rd-refine / no-lossless / cbqpoffs=-3 / crqpoffs=-3 / rc=crf / crf=16.5 / qcomp=0.65 / qpstep=4 / stats-write=0 / stats-read=0 / vbv-maxrate=160000 / vbv-bufsize=160000 / vbv-init=0.9 / crf-max=0.0 / crf-min=0.0 / ipratio=1.40 / pbratio=1.20 / aq-mode=1 / aq-strength=0.85 / cutree / zone-count=0 / no-strict-cbr / qg-size=32 / no-rc-grain / qpmax=69 / qpmin=0 / no-const-vbv / sar=0 / overscan=0 / videoformat=5 / range=0 / colorprim=9 / transfer=16 / colormatrix=9 / chromaloc=0 / display-window=0 / master-display=G(13250,34500)B(7500,3000)R(34000,16000)WP(15635,16450)L(10000000,50) / cll=0,0 / min-luma=0 / max-luma=1023 / log2-max-poc-lsb=8 / vui-timing-info / vui-hrd-info / slices=1 / no-opt-qp-pps / no-opt-ref-list-length-pps / no-multi-pass-opt-rps / scenecut-bias=0.05 / hist-threshold=0.01 / no-opt-cu-delta-qp / no-aq-motion / hdr10 / hdr10-opt / dhdr10-opt / no-idr-recovery-sei / analysis-reuse-level=0 / analysis-save-reuse-level=0 / analysis-load-reuse-level=0 / scale-factor=0 / refine-intra=0 / refine-inter=0 / refine-mv=1 / refine-ctu-distortion=0 / no-limit-sao / ctu-info=0 / no-lowpass-dct / refine-analysis-type=0 / copy-pic=1 / max-ausize-factor=1.0 / no-dynamic-refine / no-single-sei / no-hevc-aq / no-svt / no-field / qp-adaptation-range=1.00 / no-scenecut-aware-qpconformance-window-offsets / right=0 / bottom=0 / NTMzNTQ=
  38. Language                                 : English
  39. Default                                  : Yes
  40. Forced                                   : No
  41. Color range                              : Limited
  42. Color primaries                          : BT.2020
  43. Transfer characteristics                 : PQ
  44. Matrix coefficients                      : BT.2020 non-constant
  45. Mastering display color primaries        : Display P3
  46. Mastering display luminance              : min: 0.0050 cd/m2, max: 1000 cd/m2
  47. Audio
  48. ID                                       : 2
  49. Format                                   : DTS XLL
  50. Format/Info                              : Digital Theater Systems
  51. Commercial name                          : DTS-HD Master Audio
  52. Codec ID                                 : A_DTS
  53. Duration                                 : 2 h 14 min
  54. Bit rate mode                            : Variable
  55. Bit rate                                 : 4 142 kb/s
  56. Channel(s)                               : 8 channels
  57. Channel layout                           : C L R LFE Lb Rb Lss Rss
  58. Sampling rate                            : 48.0 kHz
  59. Frame rate                               : 93.750 FPS (512 SPF)
  60. Bit depth                                : 24 bits
  61. Compression mode                         : Lossless
  62. Stream size                              : 3.89 GiB (20%)
  63. Title                                    : English DTS-X  7.1
  64. Language                                 : English
  65. Default                                  : No
  66. Forced                                   : No
  67. Text #1
  68. ID                                       : 3
  69. Format                                   : PGS
  70. Muxing mode                              : zlib
  71. Codec ID                                 : S_HDMV/PGS
  72. Codec ID/Info                            : Picture based subtitle format used on BDs/HD-DVDs
  73. Duration                                 : 2 h 11 min
  74. Bit rate                                 : 44.0 kb/s
  75. Count of elements                        : 4536
  76. Stream size                              : 41.2 MiB (0%)
  77. Title                                    : English-PGS
  78. Language                                 : English
  79. Default                                  : No
  80. Forced                                   : No
  81. Text #2
  82. ID                                       : 4
  83. Format                                   : PGS
  84. Muxing mode                              : zlib
  85. Codec ID                                 : S_HDMV/PGS
  86. Codec ID/Info                            : Picture based subtitle format used on BDs/HD-DVDs
  87. Duration                                 : 2 h 13 min
  88. Bit rate                                 : 28.9 kb/s
  89. Count of elements                        : 3107
  90. Stream size                              : 27.6 MiB (0%)
  91. Title                                    : Spanish-PGS
  92. Language                                 : Spanish
  93. Default                                  : No
  94. Forced                                   : No
  95. Text #3
  96. ID                                       : 5
  97. Format                                   : PGS
  98. Muxing mode                              : zlib
  99. Codec ID                                 : S_HDMV/PGS
  100. Codec ID/Info                            : Picture based subtitle format used on BDs/HD-DVDs
  101. Duration                                 : 2 h 13 min
  102. Bit rate                                 : 26.6 kb/s
  103. Count of elements                        : 3514
  104. Stream size                              : 25.5 MiB (0%)
  105. Title                                    : French-PGS
  106. Language                                 : French
  107. Default                                  : No
  108. Forced                                   : No
  109. Text #4
  110. ID                                       : 6
  111. Format                                   : PGS
  112. Muxing mode                              : zlib
  113. Codec ID                                 : S_HDMV/PGS
  114. Codec ID/Info                            : Picture based subtitle format used on BDs/HD-DVDs
  115. Duration                                 : 2 h 13 min
  116. Bit rate                                 : 27.2 kb/s
  117. Count of elements                        : 4000
  118. Stream size                              : 26.0 MiB (0%)
  119. Title                                    : Chinese-PGS
  120. Language                                 : Chinese
  121. Default                                  : No
  122. Forced                                   : No
  123. Text #5
  124. ID                                       : 7
  125. Format                                   : PGS
  126. Muxing mode                              : zlib
  127. Codec ID                                 : S_HDMV/PGS
  128. Codec ID/Info                            : Picture based subtitle format used on BDs/HD-DVDs
  129. Duration                                 : 2 h 13 min
  130. Bit rate                                 : 27.5 kb/s
  131. Count of elements                        : 3996
  132. Stream size                              : 26.2 MiB (0%)
  133. Title                                    : Chinese-PGS
  134. Language                                 : Chinese
  135. Default                                  : No
  136. Forced                                   : No
  137. Text #6
  138. ID                                       : 8
  139. Format                                   : PGS
  140. Muxing mode                              : zlib
  141. Codec ID                                 : S_HDMV/PGS
  142. Codec ID/Info                            : Picture based subtitle format used on BDs/HD-DVDs
  143. Duration                                 : 2 h 13 min
  144. Bit rate                                 : 74.2 kb/s
  145. Count of elements                        : 4151
  146. Stream size                              : 70.7 MiB (0%)
  147. Title                                    : 简英双语特效
  148. Language                                 : Chinese
  149. Default                                  : Yes
  150. Forced                                   : No
  151. Menu
  152. 00:00:00.000                             : :Chapter 1
  153. 00:03:48.728                             : :Chapter 2
  154. 00:07:45.465                             : :Chapter 3
  155. 00:11:16.592                             : :Chapter 4
  156. 00:17:41.810                             : :Chapter 5
  157. 00:21:03.178                             : :Chapter 6
  158. 00:27:24.184                             : :Chapter 7
  159. 00:33:34.846                             : :Chapter 8
  160. 00:37:22.281                             : :Chapter 9
  161. 00:45:24.012                             : :Chapter 10
  162. 00:52:19.594                             : :Chapter 11
  163. 00:56:57.205                             : :Chapter 12
  164. 01:03:11.412                             : :Chapter 13
  165. 01:10:44.990                             : :Chapter 14
  166. 01:15:25.729                             : :Chapter 15
  167. 01:21:45.901                             : :Chapter 16
  168. 01:26:59.172                             : :Chapter 17
  169. 01:32:18.199                             : :Chapter 18
  170. 01:36:43.923                             : :Chapter 19
  171. 01:43:25.574                             : :Chapter 20
  172. 01:50:23.283                             : :Chapter 21
  173. 01:54:22.897                             : :Chapter 22
  174. 02:00:41.108                             : :Chapter 23
  175. 02:07:53.332                             : :Chapter 24



此处一般会放置磁力链或种子下载链接,不过此链接需要注册会员才能看到,点击“立即注册”
磁力链下载【下载链接仅对注册会员开放,登陆后可见】
BT9527电影天堂 1、BT9527电影天堂提供的BT文件均来源于互联网抓取,只供网友学习交流、技术提升使用。
2、我们遵守BitTorrent点对点协议原则,任何版权问题请联系原资源发布商,我们不处理任何版权纠纷,谢谢!如有争议请联系邮箱:BT9527#hotmail.com(#换成@)
3、如果您发现某页面或地址有错误,请联系站长邮箱BT9527#hotmail.com(#换成@),我们会尽快处理。您的热心是对BT9527电影天堂最大的支持。
4、本站建议去正规影院观看电影以支持电影行业发展。
最新回复 (0)

你可以在 登录 or 注册 后,对此帖发表评论!

返回