亡命救护车[中文字幕].Ambulance.2022.BluRay.2160p.TrueHD7.1.HDR.x265.10bit-CTRLHD 22.82GB

版主小s 11天前 23

✔资源类型:BD-4K   ✔电影年份:2022   ✔电影地区:欧美   ✔电影分类:动作

◎译  名 亡命救护车 / 救护车 / 劫命救护(台) / 十字冲锋车(港)
◎片  名 Ambulance
◎年  代 2022
◎产  地 美国
◎类  别 动作 / 犯罪
◎语  言 英语
◎上映日期 2022-04-22(中国大陆) / 2022-04-08(美国)
◎IMDb链接 https://www.imdb.com/title/tt4998632/
◎豆瓣评分 5.6/10 (21166人评价)
◎豆瓣链接 https://movie.douban.com/subject/35250237/
◎片  长 136分钟
◎导  演 迈克尔·贝 Michael Bay (id:1027776)
◎编  剧 克里斯·费达克 Chris Fedak (id:1319798)
       劳里茨·茫奇-彼得森 Laurits Munch-Petersen (id:1126201)
       拉斯·安德烈亚斯·佩德森 Lars Andreas Pedersen (id:1010432)
◎演  员 杰克·吉伦哈尔 Jake Gyllenhaal (id:1048002)
       叶海亚·阿卜杜勒-迈丁 Yahya Abdul-Mateen II (id:1374708)
       艾莎·冈萨雷斯 Eiza González (id:1233270)
       加瑞特·迪拉胡特 Garret Dillahunt (id:1036365)
       基尔·奥唐纳 Keir O'Donnell (id:1040575)
       杰克逊·怀特 Jackson White (id:1425585)
       奥利维亚·斯坦布利亚 Olivia Stambouliah (id:1256030)
       摩西·英格拉姆 Moses Ingram (id:1446415)
       科林·伍德尔 Colin Woodell (id:1340880)
       塞德里克·桑德斯 Cedric Sanders (id:1240253)
       A·马丁内斯 A Martinez (id:1125486)
       杰西·加西亚 Jesse Garcia (id:1339720)
       何塞·巴勃罗·坎蒂略 Jose Pablo Cantillo (id:1000476)
       威尔 Wale (id:1253455)
       德文·隆恩 Devan Long (id:1413539)
       维克多·高佳卡 Victor Gojcaj (id:1226282)
       杰米·麦克布莱德 Jamie McBride (id:1000740)
       珍·普罗斯克 Jenn Proske (id:1315966)
       凯利·陈 Kayli Tran (id:1423781)
       布兰登·罗宾逊 Brendan Robinson (id:1316961)
       安娜贝勒·格维奇 Annabelle Gurwitch (id:1041271)
       刘慈慈 Cici Lau (id:1438404)
       切尔西哈里斯 Chelsea Harris (id:1222987)
       安迪·费儒 Andy Favreau (id:1390048)
       艾恩 Ayne (id:1450293)
       加里·西弗斯  (id:1472214)

◎简  介
  本片翻拍自2005年同名丹麦电影,功勋退伍士兵威尔·夏普(叶海亚·阿卜杜勒-迈丁 饰)为救妻子情急之下找到养兄弟丹尼(杰克·吉伦哈尔 饰)求助,却因此被卷入洛杉矶史上最大金额银行抢劫案。在脱身中出现的致命差池,迫使二人挟持了一辆载有一名垂危警察和一位顶尖急救专家卡姆·汤普森(艾莎·冈萨雷斯 饰)的救护车。在这场持久的高速追逐中,威尔和丹尼极力躲避全城警察的大规模搜捕、保证人质的生命安全、努力不对兄弟拔刀相向,同时完成这场洛杉矶有史以来最疯狂且惊险刺激的逃脱。
  1. ##### MediaInfo ######
  2. General
  3. Unique ID                                : 327086293131282697022046879071681875460 (0xF61287548F1196FFC7F0CC4545378E04)
  4. Complete name                            : Ambulance.2022.BluRay.2160p.TrueHD7.1.HDR.x265.10bit-CTRLHD.mkv
  5. Format                                   : Matroska
  6. Format version                           : Version 4
  7. File size                                : 22.8 GiB
  8. Duration                                 : 2 h 16 min
  9. Overall bit rate mode                    : Variable
  10. Overall bit rate                         : 24.0 Mb/s
  11. Encoded date                             : UTC 2022-06-08 16:25:43
  12. Writing application                      : mkvmerge v62.0.0 ('Apollo') 64-bit
  13. Writing library                          : libebml v1.4.2 + libmatroska v1.6.4
  14. Video
  15. ID                                       : 1
  16. Format                                   : HEVC
  17. Format/Info                              : High Efficiency Video Coding
  18. Format profile                           : Main 10@L5@Main
  19. HDR format                               : SMPTE ST 2086, HDR10 compatible
  20. Codec ID                                 : V_MPEGH/ISO/HEVC
  21. Duration                                 : 2 h 16 min
  22. Bit rate                                 : 20.6 Mb/s
  23. Width                                    : 3 840 pixels
  24. Height                                   : 1 608 pixels
  25. Display aspect ratio                     : 2.40:1
  26. Frame rate mode                          : Constant
  27. Frame rate                               : 23.976 (23976/1000/53354) FPS
  28. Color space                              : YUV
  29. Chroma subsampling                       : 4:2:0 (Type 2)
  30. Bit depth                                : 10 bits
  31. Bits/(Pixel*Frame)                       : 0.139
  32. Stream size                              : 19.6 GiB (86%)
  33. Writing library                          : x265 3.5+10-82786fccc:[Windows][MSVC 1929][64 bit] 10bit
  34. Encoding settings                        : cpuid=533541111039 / frame-threads=5 / numa-pools=36,36 / wpp / no-pmode / no-pme / no-psnr / no-ssim / log-level=2 / input-csp=1 / input-res=3840x1608 / interlace=0 / total-frames=0 / level-idc=0 / high-tier=1 / uhd-bd=0 / ref=6 / no-allow-non-conformance / repeat-headers / annexb / no-aud / no-eob / no-eos / no-hrd / info / hash=0 / no-temporal-layers / no-open-gop / min-keyint=23 / keyint=250 / gop-lookahead=0 / bframes=14 / b-adapt=2 / b-pyramid / bframe-bias=0 / rc-lookahead=75 / lookahead-slices=8 / NTMzNTQ=uuDQuD2mJt9fsCf / scenecut=40 / hist-scenecut=0 / radl=0 / no-splice / no-intra-refresh / ctu=32 / min-cu-size=8 / no-rect / no-amp / max-tu-size=32 / tu-inter-depth=1 / tu-intra-depth=1 / limit-tu=0 / rdoq-level=2 / dynamic-rd=0.00 / no-ssim-rd / signhide / no-tskip / nr-intra=0 / nr-inter=0 / no-constrained-intra / no-strong-intra-smoothing / max-merge=3 / limit-refs=1 / no-limit-modes / me=3 / subme=7 / merange=64 / temporal-mvp / no-frame-dup / no-hme / weightp / weightb / no-analyze-src-pics / deblock=0:0 / no-sao / no-sao-non-deblock / rd=4 / selective-sao=0 / no-early-skip / rskip / no-fast-intra / no-tskip-fast / no-cu-lossless / b-intra / no-splitrd-skip / rdpenalty=2 / psy-rd=3.00 / psy-rdoq=4.80 / no-rd-refine / no-lossless / cbqpoffs=0 / crqpoffs=0 / rc=crf / crf=16.0 / qcomp=0.60 / qpstep=4 / stats-write=0 / stats-read=0 / ipratio=1.40 / pbratio=1.30 / aq-mode=1 / aq-strength=1.00 / cutree / zone-count=0 / no-strict-cbr / qg-size=32 / no-rc-grain / qpmax=69 / qpmin=0 / no-const-vbv / sar=0 / overscan=0 / videoformat=5 / range=0 / colorprim=9 / transfer=16 / colormatrix=9 / chromaloc=1 / chromaloc-top=2 / chromaloc-bottom=2 / display-window=0 / master-display=G(13250,34500)B(7500,3000)R(34000,16000)WP(15635,16450)L(40000000,50) / cll=1000,410 / min-luma=0 / max-luma=1023 / log2-max-poc-lsb=8 / vui-timing-info / vui-hrd-info / slices=1 / no-opt-qp-pps / no-opt-ref-list-length-pps / no-multi-pass-opt-rps / scenecut-bias=0.05 / hist-threshold=0.03 / no-opt-cu-delta-qp / aq-motion / hdr10 / hdr10-opt / no-dhdr10-opt / no-idr-recovery-sei / analysis-reuse-level=0 / analysis-save-reuse-level=0 / analysis-load-reuse-level=0 / scale-factor=0 / refine-intra=0 / refine-inter=0 / refine-mv=1 / refine-ctu-distortion=0 / no-limit-sao / ctu-info=0 / no-lowpass-dct / refine-analysis-type=0 / copy-pic=1 / max-ausize-factor=1.0 / no-dynamic-refine / no-single-sei / no-hevc-aq / no-svt / no-field / qp-adaptation-range=1.00 / scenecut-aware-qp=0conformance-window-offsets / right=0 / bottom=0 / NTMzNTQ= / decoder-max-rate=0 / no-vbv-live-multi-pass
  35. Default                                  : Yes
  36. Forced                                   : No
  37. Color range                              : Limited
  38. Color primaries                          : BT.2020
  39. Transfer characteristics                 : PQ
  40. Matrix coefficients                      : BT.2020 non-constant
  41. Mastering display color primaries        : Display P3
  42. Mastering display luminance              : min: 0.0050 cd/m2, max: 4000 cd/m2
  43. Maximum Content Light Level              : 1000 cd/m2
  44. Maximum Frame-Average Light Level        : 410 cd/m2
  45. Audio
  46. ID                                       : 2
  47. ID in the original source medium         : 4352 (0x1100)
  48. Format                                   : MLP FBA 16-ch
  49. Format/Info                              : Meridian Lossless Packing FBA with 16-channel presentation
  50. Commercial name                          : Dolby TrueHD with Dolby Atmos
  51. Codec ID                                 : A_TRUEHD
  52. Duration                                 : 2 h 16 min
  53. Bit rate mode                            : Variable
  54. Bit rate                                 : 3 147 kb/s
  55. Maximum bit rate                         : 5 253 kb/s
  56. Channel(s)                               : 8 channels
  57. Channel layout                           : L R C LFE Ls Rs Lb Rb
  58. Sampling rate                            : 48.0 kHz
  59. Frame rate                               : 1 200.000 FPS (40 SPF)
  60. Compression mode                         : Lossless
  61. Stream size                              : 3.00 GiB (13%)
  62. Language                                 : English
  63. Default                                  : Yes
  64. Forced                                   : No
  65. Original source medium                   : Blu-ray
  66. Number of dynamic objects                : 11
  67. Bed channel count                        : 1 channel
  68. Bed channel configuration                : LFE
  69. Text #1
  70. ID                                       : 3
  71. Format                                   : PGS
  72. Muxing mode                              : zlib
  73. Codec ID                                 : S_HDMV/PGS
  74. Codec ID/Info                            : Picture based subtitle format used on BDs/HD-DVDs
  75. Duration                                 : 2 h 12 min
  76. Bit rate                                 : 32.2 kb/s
  77. Count of elements                        : 4796
  78. Stream size                              : 30.5 MiB (0%)
  79. Language                                 : Chinese
  80. Default                                  : Yes
  81. Forced                                   : No
  82. Text #2
  83. ID                                       : 4
  84. Format                                   : PGS
  85. Muxing mode                              : zlib
  86. Codec ID                                 : S_HDMV/PGS
  87. Codec ID/Info                            : Picture based subtitle format used on BDs/HD-DVDs
  88. Duration                                 : 2 h 12 min
  89. Bit rate                                 : 32.7 kb/s
  90. Count of elements                        : 4796
  91. Stream size                              : 30.9 MiB (0%)
  92. Language                                 : Chinese
  93. Default                                  : No
  94. Forced                                   : No
  95. Text #3
  96. ID                                       : 5
  97. Format                                   : PGS
  98. Muxing mode                              : zlib
  99. Codec ID                                 : S_HDMV/PGS
  100. Codec ID/Info                            : Picture based subtitle format used on BDs/HD-DVDs
  101. Duration                                 : 2 h 12 min
  102. Bit rate                                 : 65.4 kb/s
  103. Count of elements                        : 4796
  104. Stream size                              : 61.9 MiB (0%)
  105. Language                                 : Chinese
  106. Default                                  : No
  107. Forced                                   : No
  108. Text #4
  109. ID                                       : 6
  110. Format                                   : PGS
  111. Muxing mode                              : zlib
  112. Codec ID                                 : S_HDMV/PGS
  113. Codec ID/Info                            : Picture based subtitle format used on BDs/HD-DVDs
  114. Duration                                 : 2 h 12 min
  115. Bit rate                                 : 65.8 kb/s
  116. Count of elements                        : 4796
  117. Stream size                              : 62.3 MiB (0%)
  118. Language                                 : Chinese
  119. Default                                  : No
  120. Forced                                   : No
  121. Text #5
  122. ID                                       : 7
  123. ID in the original source medium         : 4608 (0x1200)
  124. Format                                   : PGS
  125. Muxing mode                              : zlib
  126. Codec ID                                 : S_HDMV/PGS
  127. Codec ID/Info                            : Picture based subtitle format used on BDs/HD-DVDs
  128. Duration                                 : 2 h 11 min
  129. Bit rate                                 : 61.5 kb/s
  130. Count of elements                        : 5000
  131. Stream size                              : 58.0 MiB (0%)
  132. Language                                 : English
  133. Default                                  : No
  134. Forced                                   : No
  135. Original source medium                   : Blu-ray
  136. Menu
  137. 00:00:00.000                             : en:第 01 章
  138. 00:07:57.268                             : en:第 02 章
  139. 00:15:41.941                             : en:第 03 章
  140. 00:22:57.542                             : en:第 04 章
  141. 00:29:59.631                             : en:第 05 章
  142. 00:37:01.802                             : en:第 06 章
  143. 00:43:27.646                             : en:第 07 章
  144. 00:49:34.554                             : en:第 08 章
  145. 00:56:07.655                             : en:第 09 章
  146. 01:02:35.168                             : en:第 10 章
  147. 01:07:09.025                             : en:第 11 章
  148. 01:12:45.069                             : en:第 12 章
  149. 01:21:00.605                             : en:第 13 章
  150. 01:31:12.717                             : en:第 14 章
  151. 01:40:04.206                             : en:第 15 章
  152. 01:49:48.373                             : en:第 16 章
  153. 01:56:06.250                             : en:第 17 章
  154. 02:00:46.030                             : en:第 18 章
  155. 02:06:52.521                             : en:第 19 章
  156. 02:13:47.853                             : en:第 20 章





此处一般会放置磁力链或种子下载链接,不过此链接需要注册会员才能看到,点击“立即注册”
磁力链下载【下载链接仅对注册会员开放,登陆后可见】
BT9527电影天堂 1、BT9527电影天堂提供的BT文件均来源于互联网抓取,只供网友学习交流、技术提升使用。
2、我们遵守BitTorrent点对点协议原则,任何版权问题请联系原资源发布商,我们不处理任何版权纠纷,谢谢!如有争议请联系邮箱:BT9527#hotmail.com(#换成@)
3、如果您发现某页面或地址有错误,请联系站长邮箱BT9527#hotmail.com(#换成@),我们会尽快处理。您的热心是对BT9527电影天堂最大的支持。
4、本站建议去正规影院观看电影以支持电影行业发展。
最新回复 (0)

你可以在 登录 or 注册 后,对此帖发表评论!

返回
发新帖