辣手枭雄[中文字幕].The.Dark.Past.1948.BluRay.1080p.AC3.x265.10bit-CTRLHD 4.16GB

版主小s 11天前 23

✔资源类型:暂未分类   ✔电影年份:更 早   ✔电影地区:欧美   ✔电影分类:惊悚

◎译  名 辣手枭雄 / 过去之暗
◎片  名 The Dark Past
◎年  代 1948
◎产  地 美国
◎类  别 惊悚 / 犯罪 / 黑色电影
◎语  言 英语
◎上映日期 1948-12-22
◎IMDb链接 https://www.imdb.com/title/tt0040270/
◎豆瓣链接 https://movie.douban.com/subject/2111542/
◎片  长 75 分钟
◎导  演 鲁道夫·马泰 Rudolph Maté (id:1007208)
◎编  剧 菲利普·麦克唐纳 Philip MacDonald (id:1042249)
       迈克尔·布兰克福 Michael Blankfort (id:1038791)
       Albert Duffy Albert Duffy (id:1006662)
       詹姆斯·沃里克 James Warwick (id:1167150)
       奥斯卡·索尔 Oscar Saul (id:1015050)
       James Warwick James Warwick (id:1163708)
       马尔文·沃尔德 Malvin Wald (id:1025705)
◎演  员 塞尔默杰克逊 Selmer Jackson (id:1104629)
       贝里·克勒格尔 Berry Kroeger (id:1107117)
       Jimmy Lloyd Jimmy Lloyd (id:1116018)
       埃德温·米尔斯 Edwin Mills (id:1123986)
       罗伯特威廉姆斯 Robert Williams (id:1166136)
       罗伯特·奥斯特洛 Robert Osterloh (id:1136338)
       科兹摩萨尔多 Cosmo Sardo (id:1147960)
       Brick Sullivan Brick Sullivan (id:1154633)
       Hermine Sterler Hermine Sterler (id:1158196)
       Pat McGeehan Pat McGeehan (id:1124859)
       Edward Earle Edward Earle (id:1009249)
       史蒂文·杰雷 Steven Geray (id:1100542)
       山姆·哈里斯 Sam Harris (id:1100419)
       玛丽·戈登 Mary Gordon (id:1095575)
       露易丝·麦斯威尔 Lois Maxwell (id:1004788)
       Robert Hyatt Robert Hyatt (id:1014761)
       威廉·霍尔登 William Holden (id:1002737)
       李·科布 Lee J. Cobb (id:1036551)
       阿黛尔·杰金斯 Adele Jergens (id:1037174)
       G·帕特·柯林斯 G. Pat Collins (id:1070150)
       Bill Cartledge Bill Cartledge (id:1071629)
       Charles Cane Charles Cane (id:1074557)
       埃伦·科比 Ellen Corby (id:1075837)
       凯瑟琳卡 Kathryn Card (id:1067858)
       Stephen Dunne Stephen Dunne (id:1084442)
       Lester Dorr Lester Dorr (id:1085148)
       威尔顿格拉芙 Wilton Graff (id:1092090)
       Harry Harvey Jr. Harry Harvey Jr. (id:1093233)
       尼娜·弗彻 Nina Foch (id:1002809)
       巴迪·艾德勒 Buddy Adler (id:1012659)
       乔治·邓宁 George Duning (id:1033128)
       约瑟夫·沃克 Joseph Walker (id:1162998)
       维奥拉·劳伦斯 Viola Lawrence (id:1039537)
       卡里·奥戴尔 Cary Odell (id:1038461)
       弗兰克·塔特尔 Frank Tuttle (id:1150429)
       让·路易 Jean Louis (id:1028414)
       Milton Feldman Milton Feldman (id:1081287)
  1. ##### MediaInfo ######
  2. General
  3. Unique ID                                : 192931900228963675075344911522002808020 (0x912555175EBDCB066BFCFB99F916ACD4)
  4. Complete name                            : The.Dark.Past.1948.BluRay.1080p.AC3.x265.10bit-CTRLHD.mkv
  5. Format                                   : Matroska
  6. Format version                           : Version 4
  7. File size                                : 4.16 GiB
  8. Duration                                 : 1 h 14 min
  9. Overall bit rate                         : 8 029 kb/s
  10. Encoded date                             : UTC 2022-06-08 04:22:19
  11. Writing application                      : mkvmerge v64.0.0 ('Willows') 64-bit
  12. Writing library                          : libebml v1.4.2 + libmatroska v1.6.4
  13. Video
  14. ID                                       : 1
  15. Format                                   : HEVC
  16. Format/Info                              : High Efficiency Video Coding
  17. Format profile                           : Main 10@L5.1@High
  18. Codec ID                                 : V_MPEGH/ISO/HEVC
  19. Duration                                 : 1 h 14 min
  20. Bit rate                                 : 7 360 kb/s
  21. Width                                    : 1 432 pixels
  22. Height                                   : 1 080 pixels
  23. Display aspect ratio                     : 4:3
  24. Frame rate mode                          : Constant
  25. Frame rate                               : 23.976 (23976/1000/53354) FPS
  26. Color space                              : YUV
  27. Chroma subsampling                       : 4:2:0
  28. Bit depth                                : 10 bits
  29. Bits/(Pixel*Frame)                       : 0.198
  30. Stream size                              : 3.81 GiB (92%)
  31. Writing library                          : x265 3.5+20-17839cc0d:[Windows][MSVC 1930][64 bit] 10bit
  32. Encoding settings                        : cpuid=533541111039 / frame-threads=4 / numa-pools=24 / wpp / no-pmode / no-pme / no-psnr / no-ssim / log-level=2 / input-csp=1 / input-res=1432x1080 / interlace=0 / total-frames=0 / level-idc=51 / high-tier=1 / uhd-bd=0 / ref=6 / no-allow-non-conformance / repeat-headers / annexb / no-aud / no-eob / no-eos / no-hrd / info / hash=0 / no-temporal-layers / no-open-gop / min-keyint=23 / keyint=250 / gop-lookahead=0 / bframes=8 / b-adapt=2 / b-pyramid / bframe-bias=0 / rc-lookahead=24 / lookahead-slices=6 / NTMzNTQ=uuDQuD2mJt9fsCf / scenecut=40 / no-hist-scenecut / radl=0 / no-splice / no-intra-refresh / ctu=64 / min-cu-size=8 / no-rect / no-amp / max-tu-size=32 / tu-inter-depth=1 / tu-intra-depth=1 / limit-tu=0 / rdoq-level=0 / dynamic-rd=0.00 / no-ssim-rd / signhide / no-tskip / nr-intra=0 / nr-inter=0 / no-constrained-intra / no-strong-intra-smoothing / max-merge=3 / limit-refs=1 / no-limit-modes / me=2 / subme=7 / merange=48 / temporal-mvp / no-frame-dup / no-hme / weightp / weightb / no-analyze-src-pics / deblock=0:0 / sao / no-sao-non-deblock / rd=4 / selective-sao=4 / early-skip / rskip / no-fast-intra / no-tskip-fast / no-cu-lossless / b-intra / no-splitrd-skip / rdpenalty=0 / psy-rd=2.00 / psy-rdoq=0.00 / no-rd-refine / no-lossless / cbqpoffs=0 / crqpoffs=0 / rc=crf / crf=18.0 / qcomp=0.60 / qpstep=4 / stats-write=0 / stats-read=0 / vbv-maxrate=160000 / vbv-bufsize=160000 / vbv-init=0.9 / min-vbv-fullness=50.0 / max-vbv-fullness=80.0 / crf-max=0.0 / crf-min=0.0 / ipratio=1.40 / pbratio=1.30 / aq-mode=3 / aq-strength=1.00 / cutree / zone-count=0 / no-strict-cbr / qg-size=32 / no-rc-grain / qpmax=69 / qpmin=0 / no-const-vbv / sar=0 / overscan=0 / videoformat=5 / range=0 / colorprim=2 / transfer=2 / colormatrix=2 / chromaloc=0 / display-window=0 / cll=0,0 / min-luma=0 / max-luma=1023 / log2-max-poc-lsb=8 / vui-timing-info / vui-hrd-info / slices=1 / no-opt-qp-pps / no-opt-ref-list-length-pps / no-multi-pass-opt-rps / scenecut-bias=0.05 / hist-threshold=0.03 / no-opt-cu-delta-qp / aq-motion / no-hdr10 / no-hdr10-opt / no-dhdr10-opt / no-idr-recovery-sei / analysis-reuse-level=0 / analysis-save-reuse-level=0 / analysis-load-reuse-level=0 / scale-factor=0 / refine-intra=0 / refine-inter=0 / refine-mv=1 / refine-ctu-distortion=0 / no-limit-sao / ctu-info=0 / no-lowpass-dct / refine-analysis-type=0 / copy-pic=1 / max-ausize-factor=1.0 / no-dynamic-refine / no-single-sei / no-hevc-aq / no-svt / no-field / qp-adaptation-range=1.00 / scenecut-aware-qp=0conformance-window-offsets / right=0 / bottom=0 / NTMzNTQ= / decoder-max-rate=0 / no-vbv-live-multi-pass
  33. Language                                 : English
  34. Default                                  : Yes
  35. Forced                                   : No
  36. Audio
  37. ID                                       : 2
  38. Format                                   : AC-3
  39. Format/Info                              : Audio Coding 3
  40. Commercial name                          : Dolby Digital
  41. Codec ID                                 : A_AC3
  42. Duration                                 : 1 h 14 min
  43. Bit rate mode                            : Constant
  44. Bit rate                                 : 640 kb/s
  45. Channel(s)                               : 1 channel
  46. Channel layout                           : C
  47. Sampling rate                            : 48.0 kHz
  48. Frame rate                               : 31.250 FPS (1536 SPF)
  49. Compression mode                         : Lossy
  50. Stream size                              : 339 MiB (8%)
  51. Language                                 : English
  52. Service kind                             : Complete Main
  53. Default                                  : Yes
  54. Forced                                   : No
  55. Text
  56. ID                                       : 3
  57. Format                                   : PGS
  58. Muxing mode                              : zlib
  59. Codec ID                                 : S_HDMV/PGS
  60. Codec ID/Info                            : Picture based subtitle format used on BDs/HD-DVDs
  61. Duration                                 : 1 h 12 min
  62. Bit rate                                 : 57.1 kb/s
  63. Count of elements                        : 2228
  64. Stream size                              : 29.7 MiB (1%)
  65. Language                                 : Chinese
  66. Default                                  : Yes
  67. Forced                                   : No
  68. Menu
  69. 00:00:00.000                             : en:Chapter 01
  70. 00:07:42.962                             : en:Chapter 02
  71. 00:13:04.826                             : en:Chapter 03
  72. 00:22:06.492                             : en:Chapter 04
  73. 00:28:08.687                             : en:Chapter 05
  74. 00:37:42.218                             : en:Chapter 06
  75. 00:47:50.451                             : en:Chapter 07
  76. 00:56:02.859                             : en:Chapter 08
  77. 01:02:04.596                             : en:Chapter 09
  78. 01:08:19.012                             : en:Chapter 10





此处一般会放置磁力链或种子下载链接,不过此链接需要注册会员才能看到,点击“立即注册”
磁力链下载【下载链接仅对注册会员开放,登陆后可见】
BT9527电影天堂 1、BT9527电影天堂提供的BT文件均来源于互联网抓取,只供网友学习交流、技术提升使用。
2、我们遵守BitTorrent点对点协议原则,任何版权问题请联系原资源发布商,我们不处理任何版权纠纷,谢谢!如有争议请联系邮箱:BT9527#hotmail.com(#换成@)
3、如果您发现某页面或地址有错误,请联系站长邮箱BT9527#hotmail.com(#换成@),我们会尽快处理。您的热心是对BT9527电影天堂最大的支持。
4、本站建议去正规影院观看电影以支持电影行业发展。
最新回复 (0)

你可以在 登录 or 注册 后,对此帖发表评论!

返回
发新帖