好莱坞星星女孩[中文字幕].Hollywood.Stargirl.2022.2160p.DSNP.WEB-DL.x265.10bit.HDR.DDP5.1.Atmos-CM 11.86GB

版主小s 3月前 163

✔资源类型:4K   ✔电影年份:2022   ✔电影地区:欧美   ✔电影分类:剧情

RARBG.jpg (52.5 KB, 下载次数: 0)

下载附件

5 天前 上传


Douban.jpg (124.05 KB, 下载次数: 0)

下载附件

5 天前 上传



◎译  名 好莱坞星星女孩 / 星星女孩 / 星耀女孩:好莱坞篇
◎片  名 Hollywood Stargirl
◎年  代 2022
◎产  地 美国
◎类  别 剧情 / 喜剧 / 爱情
◎语  言 英语
◎上映日期 2022-06-03(美国网络)
◎IMDb链接 https://www.imdb.com/title/tt14112310/
◎豆瓣链接 https://movie.douban.com/subject/35403575/
◎导  演 朱莉·哈特 Julia Hart (id:1355560)
◎编  剧 朱莉·哈特 Julia Hart (id:1355560)
       约旦·霍洛维茨 Jordan Horowitz (id:1369609)
◎演  员 格蕾丝·万德沃尔 Grace VanderWaal (id:1422263)
       朱迪·格雷尔 Judy Greer (id:1009256)
       乌玛·瑟曼 Uma Thurman (id:1031221)
       贾德·赫希 Judd Hirsch (id:1055274)
       Ben Geurens Ben Geurens (id:1098478)
       莎拉尤·拉奧 Sarayu Blue (id:1326670)
       克里斯·威廉斯 Chris Williams (id:1300965)
       艾尔·马德里加尔 Al Madrigal (id:1433413)
       萨拉·阿米尼 Sara Amini (id:1409815)
       维克托·沃尔夫 Victor Wolf (id:1195579)
       尼基尔·派 Nikhil Pai (id:1469028)

◎简  介
  朱莉·哈特回归执导,格蕾丝·万德沃尔回归主演,迈克尔·潘操刀续集影片的原创音乐,哈特与约旦·霍洛维茨共同操刀剧本。续集影片将围绕星星女孩进入一个更大的充满了音乐、梦想和可能性的世界展开。瑟曼将饰演洛葛仙妮·马特尔,星星女孩在她的旅途中遇到了马特尔,并对其非常欣赏。
  1. Video
  2. ID                                       : 1
  3. Format                                   : HEVC
  4. Format/Info                              : High Efficiency Video Coding
  5. Format profile                           : Main 10@L5@High
  6. HDR format                               : SMPTE ST 2086, HDR10 compatible
  7. Codec ID                                 : V_MPEGH/ISO/HEVC
  8. Duration                                 : 1 h 42 min
  9. Bit rate                                 : 15.7 Mb/s
  10. Width                                    : 3 840 pixels
  11. Height                                   : 2 160 pixels
  12. Display aspect ratio                     : 16:9
  13. Frame rate mode                          : Constant
  14. Frame rate                               : 24.000 FPS
  15. Color space                              : YUV
  16. Chroma subsampling                       : 4:2:0
  17. Bit depth                                : 10 bits
  18. Bits/(Pixel*Frame)                       : 0.079
  19. Stream size                              : 11.3 GiB (95%)
  20. Language                                 : English
  21. Default                                  : Yes
  22. Forced                                   : No
  23. Color range                              : Limited
  24. Color primaries                          : BT.2020
  25. Transfer characteristics                 : PQ
  26. Matrix coefficients                      : BT.2020 non-constant
  27. Mastering display color primaries        : BT.2020
  28. Mastering display luminance              : min: 0.0000 cd/m2, max: 1000 cd/m2
  29. Audio
  30. ID                                       : 2
  31. Format                                   : E-AC-3 JOC
  32. Format/Info                              : Enhanced AC-3 with Joint Object Coding
  33. Commercial name                          : Dolby Digital Plus with Dolby Atmos
  34. Codec ID                                 : A_EAC3
  35. Duration                                 : 1 h 42 min
  36. Bit rate mode                            : Constant
  37. Bit rate                                 : 768 kb/s
  38. Channel(s)                               : 6 channels
  39. Channel layout                           : L R C LFE Ls Rs
  40. Sampling rate                            : 48.0 kHz
  41. Frame rate                               : 31.250 FPS (1536 SPF)
  42. Compression mode                         : Lossy
  43. Stream size                              : 565 MiB (5%)
  44. Language                                 : English
  45. Service kind                             : Complete Main
  46. Default                                  : Yes
  47. Forced                                   : No
  48. Complexity index                         : 16
  49. Number of dynamic objects                : 15
  50. Bed channel count                        : 1 channel
  51. Bed channel configuration                : LFE
  52. Text #1
  53. ID                                       : 3
  54. Format                                   : UTF-8
  55. Codec ID                                 : S_TEXT/UTF8
  56. Codec ID/Info                            : UTF-8 Plain Text
  57. Duration                                 : 1 h 41 min
  58. Bit rate                                 : 58 b/s
  59. Count of elements                        : 1466
  60. Stream size                              : 43.7 KiB (0%)
  61. Title                                    : SDH
  62. Language                                 : English
  63. Default                                  : No
  64. Forced                                   : No
  65. Text #2
  66. ID                                       : 4
  67. Format                                   : UTF-8
  68. Codec ID                                 : S_TEXT/UTF8
  69. Codec ID/Info                            : UTF-8 Plain Text
  70. Duration                                 : 1 h 41 min
  71. Bit rate                                 : 50 b/s
  72. Count of elements                        : 1266
  73. Stream size                              : 37.9 KiB (0%)
  74. Language                                 : Czech
  75. Default                                  : No
  76. Forced                                   : No
  77. Text #3
  78. ID                                       : 5
  79. Format                                   : UTF-8
  80. Codec ID                                 : S_TEXT/UTF8
  81. Codec ID/Info                            : UTF-8 Plain Text
  82. Duration                                 : 1 h 41 min
  83. Bit rate                                 : 45 b/s
  84. Count of elements                        : 1209
  85. Stream size                              : 34.3 KiB (0%)
  86. Language                                 : Danish
  87. Default                                  : No
  88. Forced                                   : No
  89. Text #4
  90. ID                                       : 6
  91. Format                                   : UTF-8
  92. Codec ID                                 : S_TEXT/UTF8
  93. Codec ID/Info                            : UTF-8 Plain Text
  94. Duration                                 : 1 h 41 min
  95. Bit rate                                 : 53 b/s
  96. Count of elements                        : 1265
  97. Stream size                              : 40.2 KiB (0%)
  98. Language                                 : German
  99. Default                                  : No
  100. Forced                                   : No
  101. Text #5
  102. ID                                       : 7
  103. Format                                   : UTF-8
  104. Codec ID                                 : S_TEXT/UTF8
  105. Codec ID/Info                            : UTF-8 Plain Text
  106. Duration                                 : 1 h 41 min
  107. Bit rate                                 : 90 b/s
  108. Count of elements                        : 1266
  109. Stream size                              : 67.3 KiB (0%)
  110. Language                                 : Greek
  111. Default                                  : No
  112. Forced                                   : No
  113. Text #6
  114. ID                                       : 8
  115. Format                                   : UTF-8
  116. Codec ID                                 : S_TEXT/UTF8
  117. Codec ID/Info                            : UTF-8 Plain Text
  118. Duration                                 : 1 h 41 min
  119. Bit rate                                 : 49 b/s
  120. Count of elements                        : 1265
  121. Stream size                              : 37.2 KiB (0%)
  122. Language                                 : Spanish
  123. Default                                  : No
  124. Forced                                   : No
  125. Text #7
  126. ID                                       : 9
  127. Format                                   : UTF-8
  128. Codec ID                                 : S_TEXT/UTF8
  129. Codec ID/Info                            : UTF-8 Plain Text
  130. Duration                                 : 1 h 41 min
  131. Bit rate                                 : 49 b/s
  132. Count of elements                        : 1265
  133. Stream size                              : 36.8 KiB (0%)
  134. Title                                    : Latin American
  135. Language                                 : Spanish
  136. Default                                  : No
  137. Forced                                   : No
  138. Text #8
  139. ID                                       : 10
  140. Format                                   : UTF-8
  141. Codec ID                                 : S_TEXT/UTF8
  142. Codec ID/Info                            : UTF-8 Plain Text
  143. Duration                                 : 1 h 41 min
  144. Bit rate                                 : 42 b/s
  145. Count of elements                        : 1263
  146. Stream size                              : 31.4 KiB (0%)
  147. Language                                 : Finnish
  148. Default                                  : No
  149. Forced                                   : No
  150. Text #9
  151. ID                                       : 11
  152. Format                                   : UTF-8
  153. Codec ID                                 : S_TEXT/UTF8
  154. Codec ID/Info                            : UTF-8 Plain Text
  155. Duration                                 : 1 h 41 min
  156. Bit rate                                 : 43 b/s
  157. Count of elements                        : 1149
  158. Stream size                              : 32.2 KiB (0%)
  159. Language                                 : French
  160. Default                                  : No
  161. Forced                                   : No
  162. Text #10
  163. ID                                       : 12
  164. Format                                   : UTF-8
  165. Codec ID                                 : S_TEXT/UTF8
  166. Codec ID/Info                            : UTF-8 Plain Text
  167. Duration                                 : 1 h 41 min
  168. Bit rate                                 : 47 b/s
  169. Count of elements                        : 1266
  170. Stream size                              : 35.7 KiB (0%)
  171. Language                                 : Hungarian
  172. Default                                  : No
  173. Forced                                   : No
  174. Text #11
  175. ID                                       : 13
  176. Format                                   : UTF-8
  177. Codec ID                                 : S_TEXT/UTF8
  178. Codec ID/Info                            : UTF-8 Plain Text
  179. Duration                                 : 1 h 41 min
  180. Bit rate                                 : 49 b/s
  181. Count of elements                        : 1265
  182. Stream size                              : 36.7 KiB (0%)
  183. Language                                 : Italian
  184. Default                                  : No
  185. Forced                                   : No
  186. Text #12
  187. ID                                       : 14
  188. Format                                   : UTF-8
  189. Codec ID                                 : S_TEXT/UTF8
  190. Codec ID/Info                            : UTF-8 Plain Text
  191. Duration                                 : 1 h 41 min
  192. Bit rate                                 : 46 b/s
  193. Count of elements                        : 1253
  194. Stream size                              : 34.8 KiB (0%)
  195. Language                                 : Japanese
  196. Default                                  : No
  197. Forced                                   : No
  198. Text #13
  199. ID                                       : 15
  200. Format                                   : UTF-8
  201. Codec ID                                 : S_TEXT/UTF8
  202. Codec ID/Info                            : UTF-8 Plain Text
  203. Duration                                 : 1 h 41 min
  204. Bit rate                                 : 55 b/s
  205. Count of elements                        : 1279
  206. Stream size                              : 41.5 KiB (0%)
  207. Language                                 : Korean
  208. Default                                  : No
  209. Forced                                   : No
  210. Text #14
  211. ID                                       : 16
  212. Format                                   : UTF-8
  213. Codec ID                                 : S_TEXT/UTF8
  214. Codec ID/Info                            : UTF-8 Plain Text
  215. Duration                                 : 1 h 41 min
  216. Bit rate                                 : 42 b/s
  217. Count of elements                        : 927
  218. Stream size                              : 31.5 KiB (0%)
  219. Language                                 : Dutch
  220. Default                                  : No
  221. Forced                                   : No
  222. Text #15
  223. ID                                       : 17
  224. Format                                   : UTF-8
  225. Codec ID                                 : S_TEXT/UTF8
  226. Codec ID/Info                            : UTF-8 Plain Text
  227. Duration                                 : 1 h 41 min
  228. Bit rate                                 : 47 b/s
  229. Count of elements                        : 1265
  230. Stream size                              : 35.6 KiB (0%)
  231. Language                                 : Norwegian
  232. Default                                  : No
  233. Forced                                   : No
  234. Text #16
  235. ID                                       : 18
  236. Format                                   : UTF-8
  237. Codec ID                                 : S_TEXT/UTF8
  238. Codec ID/Info                            : UTF-8 Plain Text
  239. Duration                                 : 1 h 41 min
  240. Bit rate                                 : 47 b/s
  241. Count of elements                        : 1240
  242. Stream size                              : 35.1 KiB (0%)
  243. Language                                 : Polish
  244. Default                                  : No
  245. Forced                                   : No
  246. Text #17
  247. ID                                       : 19
  248. Format                                   : UTF-8
  249. Codec ID                                 : S_TEXT/UTF8
  250. Codec ID/Info                            : UTF-8 Plain Text
  251. Duration                                 : 1 h 41 min
  252. Bit rate                                 : 52 b/s
  253. Count of elements                        : 1264
  254. Stream size                              : 39.1 KiB (0%)
  255. Language                                 : Portuguese
  256. Default                                  : No
  257. Forced                                   : No
  258. Text #18
  259. ID                                       : 20
  260. Format                                   : UTF-8
  261. Codec ID                                 : S_TEXT/UTF8
  262. Codec ID/Info                            : UTF-8 Plain Text
  263. Duration                                 : 1 h 41 min
  264. Bit rate                                 : 50 b/s
  265. Count of elements                        : 1266
  266. Stream size                              : 37.8 KiB (0%)
  267. Title                                    : Brazilian
  268. Language                                 : Portuguese
  269. Default                                  : No
  270. Forced                                   : No
  271. Text #19
  272. ID                                       : 21
  273. Format                                   : UTF-8
  274. Codec ID                                 : S_TEXT/UTF8
  275. Codec ID/Info                            : UTF-8 Plain Text
  276. Duration                                 : 1 h 41 min
  277. Bit rate                                 : 55 b/s
  278. Count of elements                        : 1265
  279. Stream size                              : 41.2 KiB (0%)
  280. Language                                 : Romanian
  281. Default                                  : No
  282. Forced                                   : No
  283. Text #20
  284. ID                                       : 22
  285. Format                                   : UTF-8
  286. Codec ID                                 : S_TEXT/UTF8
  287. Codec ID/Info                            : UTF-8 Plain Text
  288. Duration                                 : 1 h 41 min
  289. Bit rate                                 : 49 b/s
  290. Count of elements                        : 1266
  291. Stream size                              : 37.1 KiB (0%)
  292. Language                                 : Slovak
  293. Default                                  : No
  294. Forced                                   : No
  295. Text #21
  296. ID                                       : 23
  297. Format                                   : UTF-8
  298. Codec ID                                 : S_TEXT/UTF8
  299. Codec ID/Info                            : UTF-8 Plain Text
  300. Duration                                 : 1 h 41 min
  301. Bit rate                                 : 47 b/s
  302. Count of elements                        : 1259
  303. Stream size                              : 35.1 KiB (0%)
  304. Language                                 : Swedish
  305. Default                                  : No
  306. Forced                                   : No
  307. Text #22
  308. ID                                       : 24
  309. Format                                   : UTF-8
  310. Codec ID                                 : S_TEXT/UTF8
  311. Codec ID/Info                            : UTF-8 Plain Text
  312. Duration                                 : 1 h 41 min
  313. Bit rate                                 : 51 b/s
  314. Count of elements                        : 1265
  315. Stream size                              : 38.4 KiB (0%)
  316. Language                                 : Turkish
  317. Default                                  : No
  318. Forced                                   : No
  319. Text #23
  320. ID                                       : 25
  321. Format                                   : UTF-8
  322. Codec ID                                 : S_TEXT/UTF8
  323. Codec ID/Info                            : UTF-8 Plain Text
  324. Duration                                 : 1 h 41 min
  325. Bit rate                                 : 49 b/s
  326. Count of elements                        : 1268
  327. Stream size                              : 37.1 KiB (0%)
  328. Title                                    : Hong Kong
  329. Language                                 : Chinese
  330. Default                                  : No
  331. Forced                                   : No
  332. Text #24
  333. ID                                       : 26
  334. Format                                   : UTF-8
  335. Codec ID                                 : S_TEXT/UTF8
  336. Codec ID/Info                            : UTF-8 Plain Text
  337. Duration                                 : 1 h 41 min
  338. Bit rate                                 : 47 b/s
  339. Count of elements                        : 1268
  340. Stream size                              : 35.1 KiB (0%)
  341. Title                                    : Simplified
  342. Language                                 : Chinese
  343. Default                                  : No
  344. Forced                                   : No
  345. Text #25
  346. ID                                       : 27
  347. Format                                   : UTF-8
  348. Codec ID                                 : S_TEXT/UTF8
  349. Codec ID/Info                            : UTF-8 Plain Text
  350. Duration                                 : 1 h 41 min
  351. Bit rate                                 : 39 b/s
  352. Count of elements                        : 1268
  353. Stream size                              : 29.5 KiB (0%)
  354. Title                                    : Traditional
  355. Language                                 : Chinese
  356. Default                                  : No
  357. Forced                                   : No


1.jpg (25.76 KB, 下载次数: 0)

下载附件

5 天前 上传

2.jpg (19.13 KB, 下载次数: 0)

下载附件

5 天前 上传

3.jpg (22.49 KB, 下载次数: 0)

下载附件

5 天前 上传




此处一般会放置磁力链或种子下载链接,不过此链接需要注册会员才能看到,点击“立即注册”
磁力链下载【下载链接仅对注册会员开放,登陆后可见】
BT9527电影天堂 1、BT9527电影天堂提供的BT文件均来源于互联网抓取,只供网友学习交流、技术提升使用。
2、我们遵守BitTorrent点对点协议原则,任何版权问题请联系原资源发布商,我们不处理任何版权纠纷,谢谢!如有争议请联系邮箱:BT9527#hotmail.com(#换成@)
3、如果您发现某页面或地址有错误,请联系站长邮箱BT9527#hotmail.com(#换成@),我们会尽快处理。您的热心是对BT9527电影天堂最大的支持。
4、本站建议去正规影院观看电影以支持电影行业发展。
最新回复 (0)

你可以在 登录 or 注册 后,对此帖发表评论!

返回