误杀瞒天记[中英字幕].Drishyam.2015.BluRay.1080p.x265.10bit-MiniHD 5.47GB

版主小s 14天前 34

✔资源类型:暂未分类   ✔电影年份:2015   ✔电影地区:印度   ✔电影分类:剧情

◎译  名 误杀瞒天记 / 视觉 / 瞒天过海 / Visual / The Sight
◎片  名 Drishyam
◎年  代 2015
◎产  地 印度
◎类  别 剧情 / 悬疑 / 犯罪
◎语  言 印地语
◎上映日期 2022-04-15(中国大陆) / 2015-07-31(印度)
◎IMDb链接 https://www.imdb.com/title/tt4430212/
◎豆瓣评分 8.6/10 (201185人评价)
◎豆瓣链接 https://movie.douban.com/subject/26419637/
◎片  长 143分钟(中国大陆)
◎导  演 尼西卡特·卡马特 Nishikant Kamat (id:1323266)
◎编  剧 乌皮德拉·塞德海耶 Upendra Sidhaye (id:1353920)
       吉图·乔瑟夫 Jeethu Joseph (id:1353921)
◎演  员 阿贾耶·德乌干 Ajay Devgan (id:1085455)
       塔布 Tabu (id:1040796)
       施芮娅·萨兰 Shriya Saran (id:1199249)
       拉贾特·卡普尔 Rajat Kapoor (id:1288114)
       伊西塔·杜塔 Ishita Dutta (id:1353922)
       莫伦诺·贾达夫 Mrunal Jadhav (id:1353923)
       皮拉桑纳·凯特卡尔 Prasanna Ketkar (id:1353924)
       尤盖莎·索南 Yogesh Sonam (id:1353925)
       帕拉斯莫什·帕拉布 Prathamesh Parab (id:1353926)
       瑞瑟·查达哈 Rishabh Chaddha (id:1368139)

◎简  介
  维杰(阿贾耶·德乌干 Ajay Devgan 饰)和妻子娜蒂尼(施芮娅·萨兰 Shreya 饰)结婚多年,将两个女儿安久(伊西塔·杜塔 Ishita Dutta 饰)和安努(莫伦诺·贾达夫 Mrunal Jadhav 饰)抚养长大,一家人过着宁静的生活,平淡之中自有真味 。某日,安久去参加野营,结识了名为萨姆(Rishabh Chaddha 饰)的男生,此时的她并不知道的是,这位看上去文质彬彬的男孩,会彻底粉碎她的生活。                                    
                                撕下了伪善面具的萨姆竟然想要强暴安久,在激烈的挣扎反抗之中,安久失手杀死萨姆。维杰决定挺身而出保护他无辜的家人,自小热爱看电影的他利用从电影里学到的知识对萨姆的尸体进行了处理和掩埋,但警察的来访让这个家庭再一次陷入了危机之中。
  1. ##### MediaInfo ######
  2. General
  3. Unique ID                                : 245316428220761226825734199076907309351 (0xB88E39BA1BEA1DDAB1DF58D698FED927)
  4. Complete name                            : Drishyam.2015.BluRay.1080p.x265.10bit-MiniHD.mkv
  5. Format                                   : Matroska
  6. Format version                           : Version 4
  7. File size                                : 5.47 GiB
  8. Duration                                 : 2 h 43 min
  9. Overall bit rate                         : 4 788 kb/s
  10. Encoded date                             : UTC 2017-07-18 08:52:56
  11. Writing application                      : mkvmerge v11.0.0 ('Alive') 64bit
  12. Writing library                          : libebml v1.3.4 + libmatroska v1.4.5
  13. Video
  14. ID                                       : 1
  15. Format                                   : HEVC
  16. Format/Info                              : High Efficiency Video Coding
  17. Codec ID                                 : V_MPEGH/ISO/HEVC
  18. Duration                                 : 2 h 43 min
  19. Bit rate                                 : 4 053 kb/s
  20. Width                                    : 1 920 pixels
  21. Height                                   : 816 pixels
  22. Display aspect ratio                     : 2.35:1
  23. Frame rate mode                          : Constant
  24. Frame rate                               : 24.000 FPS
  25. Bits/(Pixel*Frame)                       : 0.108
  26. Stream size                              : 4.63 GiB (85%)
  27. Default                                  : Yes
  28. Forced                                   : No
  29. Audio
  30. ID                                       : 2
  31. Format                                   : AC-3
  32. Format/Info                              : Audio Coding 3
  33. Commercial name                          : Dolby Digital
  34. Codec ID                                 : A_AC3
  35. Duration                                 : 2 h 43 min
  36. Bit rate mode                            : Constant
  37. Bit rate                                 : 640 kb/s
  38. Channel(s)                               : 6 channels
  39. Channel layout                           : L R C LFE Ls Rs
  40. Sampling rate                            : 48.0 kHz
  41. Frame rate                               : 31.250 FPS (1536 SPF)
  42. Compression mode                         : Lossy
  43. Stream size                              : 749 MiB (13%)
  44. Language                                 : Hindi
  45. Service kind                             : Complete Main
  46. Default                                  : Yes
  47. Forced                                   : No
  48. Text #1
  49. ID                                       : 3
  50. Format                                   : PGS
  51. Muxing mode                              : zlib
  52. Codec ID                                 : S_HDMV/PGS
  53. Codec ID/Info                            : Picture based subtitle format used on BDs/HD-DVDs
  54. Language                                 : English
  55. Default                                  : Yes
  56. Forced                                   : No
  57. Text #2
  58. ID                                       : 4
  59. Format                                   : PGS
  60. Muxing mode                              : zlib
  61. Codec ID                                 : S_HDMV/PGS
  62. Codec ID/Info                            : Picture based subtitle format used on BDs/HD-DVDs
  63. Language                                 : Chinese
  64. Default                                  : No
  65. Forced                                   : No
  66. Text #3
  67. ID                                       : 5
  68. Format                                   : PGS
  69. Muxing mode                              : zlib
  70. Codec ID                                 : S_HDMV/PGS
  71. Codec ID/Info                            : Picture based subtitle format used on BDs/HD-DVDs
  72. Language                                 : Chinese
  73. Default                                  : No
  74. Forced                                   : No
  75. Menu
  76. 00:00:00.000                             : en:Chapter 01
  77. 00:04:46.083                             : en:Chapter 02
  78. 00:11:36.583                             : en:Chapter 03
  79. 00:15:09.541                             : en:Chapter 04
  80. 00:19:57.208                             : en:Chapter 05
  81. 00:31:32.416                             : en:Chapter 06
  82. 00:36:56.625                             : en:Chapter 07
  83. 00:44:32.625                             : en:Chapter 08
  84. 00:59:07.541                             : en:Chapter 09
  85. 01:02:20.250                             : en:Chapter 10
  86. 01:06:20.458                             : en:Chapter 11
  87. 01:14:17.958                             : en:Chapter 12
  88. 01:21:34.958                             : en:Chapter 13
  89. 01:24:22.916                             : en:Chapter 14
  90. 01:36:24.208                             : en:Chapter 15
  91. 01:43:39.250                             : en:Chapter 16
  92. 01:51:40.291                             : en:Chapter 17
  93. 02:05:56.250                             : en:Chapter 18
  94. 02:18:36.125                             : en:Chapter 19
  95. 02:39:27.458                             : en:Chapter 20





此处一般会放置磁力链或种子下载链接,不过此链接需要注册会员才能看到,点击“立即注册”
磁力链下载【下载链接仅对注册会员开放,登陆后可见】
BT9527电影天堂 1、BT9527电影天堂提供的BT文件均来源于互联网抓取,只供网友学习交流、技术提升使用。
2、我们遵守BitTorrent点对点协议原则,任何版权问题请联系原资源发布商,我们不处理任何版权纠纷,谢谢!如有争议请联系邮箱:BT9527#hotmail.com(#换成@)
3、如果您发现某页面或地址有错误,请联系站长邮箱BT9527#hotmail.com(#换成@),我们会尽快处理。您的热心是对BT9527电影天堂最大的支持。
4、本站建议去正规影院观看电影以支持电影行业发展。
最新回复 (0)

你可以在 登录 or 注册 后,对此帖发表评论!

返回
发新帖