碟中谍6:全面瓦解[国英多音轨/简繁英特效字幕].Mission.Impossible.Fallout.2018.BluRay.2160p.x265.10bit.HDR.2Audio-MiniHD 30.09GB

版主小s 11天前 27

✔资源类型:BD-4K   ✔电影年份:2018   ✔电影地区:欧美   ✔电影分类:动作

◎译  名 碟中谍6:全面瓦解 / 碟中谍6 / 职业特工队:叛逆之谜(港) / 不可能的任务:全面瓦解(台) / Mission: Impossible 6 / MI6
◎片  名 Mission: Impossible - Fallout
◎年  代 2018
◎产  地 美国 / 中国大陆 / 法国 / 挪威 / 英国
◎类  别 动作 / 惊悚 / 冒险
◎语  言 英语 / 法语
◎上映日期 2018-08-31(中国大陆) / 2018-07-27(美国)
◎IMDb链接 https://www.imdb.com/title/tt4912910/
◎豆瓣评分 8.1/10 (480602人评价)
◎豆瓣链接 https://movie.douban.com/subject/26336252/
◎片  长 147分钟
◎导  演 克里斯托弗·麦奎里 Christopher McQuarrie (id:1276314)
◎编  剧 克里斯托弗·麦奎里 Christopher McQuarrie (id:1276314)
       布鲁斯·盖勒 Bruce Geller (id:1028370)
◎演  员 汤姆·克鲁斯 Tom Cruise (id:1054435)
       亨利·卡维尔 Henry Cavill (id:1044713)
       文·瑞姆斯 Ving Rhames (id:1048129)
       西蒙·佩吉 Simon Pegg (id:1035648)
       丽贝卡·弗格森 Rebecca Ferguson (id:1088314)
       西恩·哈里斯 Sean Harris (id:1286119)
       安吉拉·贝塞特 Angela Bassett (id:1025214)
       凡妮莎·柯比 Vanessa Kirby (id:1317680)
       米歇尔·莫纳汉 Michelle Monaghan (id:1000015)
       韦斯·本特利 Wes Bentley (id:1049518)
       费雷德里克·施密特 Frederick Schmidt (id:1388344)
       亚历克·鲍德温 Alec Baldwin (id:1000011)
       杨亮 Liang Yang (id:1398252)
       克里斯托弗·约纳尔 Kristoffer Joner (id:1050483)
       沃尔夫·布利策 Wolf Blitzer (id:1065337)
       拉斐尔·琼勒 Raphael Joner (id:1398243)
       安德鲁·卡扎纳夫·平 Andrew Cazanave Pin (id:1392979)
       克里斯多夫·德·舒瓦西 Christophe de Choisy (id:1398244)
       拉裴尔·德普雷 Raphael Desprez (id:1390688)
       让·巴普蒂斯特·菲永 Jean Baptiste Fillon (id:1392983)
       马克斯·盖勒 Max Geller (id:1398242)
       奥利维尔·体班德 Olivier Huband (id:1392980)
       亚历山大·普尔 Alexandre Poole (id:1392982)
       阿利克斯·贝纳泽什 Alix Bénézech (id:1392974)
       乔伊·安沙 Joey Ansah (id:1036954)
       维利贝·托皮奇 Velibor Topic (id:1320241)
       格雷厄姆·福克斯 Grahame Fox (id:1392998)
       卡斯珀·菲利普森 Caspar Phillipson (id:1367551)
       菲恩·乔利 Ffion Jolly (id:1392988)
       鲁斯·贝恩 Russ Bain (id:1392999)
       奈杰尔·艾伦 Nigel Allen (id:1392993)
       珊·布鲁克 Sian Brooke (id:1359973)
       戈登·亚历山大 Gordon Alexander (id:1346399)
       伯纳多·桑托斯 Bernardo Santos (id:1390686)
       露丝·霍洛克斯 Ruth Horrocks (id:1397361)
       朱莉安娜·比纳德 Julianne Binard (id:1393000)
       罗斯·奥亨尼西 Ross O'Hennessey (id:1274321)
       杰茜·维宁 Jessie Vinning (id:1392997)
       大卫·穆梅尼 David Mumeni (id:1378245)
       查利·蕾娅·埃斯奎尔 Charlie Rhea Esquér (id:1392989)
       贾格·帕特尔 Jag Patel (id:1392994)
       希滕·珀泰尔 Hiten Patel (id:1392995)
       塔希尔·布尔汉 Tahir Burhan (id:1392821)
       拉普洛斯·卡伦福佐斯 Lampros Kalfuntzos (id:1392990)
       马里安·洛伦西克 Marian Lorencik (id:1397362)
       肖恩·狄克逊 Shawn Dixon (id:1392991)
       戴维·奥拉瓦莱·阿印德 David Olawale Ayinde (id:1392996)
       加里·基利 Gary Kiely (id:1392984)
       塞缪尔·加斯帕德 Samuel Gaspard (id:1392985)
       康妮·夏普 Conny Sharp (id:1392987)
       安什·拉索尔 Ansh Rathore (id:1392992)
       齐维尔·马蒂基恩 Zivile Matikiene (id:1392978)
       葛黛瓦·马歇尔 Godiva Marshall (id:1392976)
       怀亚特·亚历山大 Wyatt Alexander (id:1395246)
       孙薇晨 Wei-Chen Sun (id:1392975)
       康纳·沃尔夫 Connor Wolf (id:1392977)
       斯图尔特·戴维森 Stuart Davidson (id:1375380)
       亚历克西斯·巴尔博萨 Alexis Barbosa (id:1392981)
       汤姆·克鲁斯 Tom Cruise (id:1054435)
       J·J·艾布拉姆斯 J.J. Abrams (id:1010542)
       克里斯托弗·麦奎里 Christopher McQuarrie (id:1276314)
       布莱恩·伯克 Bryan Burk (id:1014367)
       洛内·巴尔菲 Lorne Balfe (id:1032847)
       罗伯·哈迪 Rob Hardy (id:1303822)
       埃迪·汉密尔顿 Eddie Hamilton (id:1412062)
       明迪·马丁 Mindy Marin (id:1291003)
       彼得·文汉姆 Peter Wenham (id:1300702)
       杰弗里·库兰 Jeffrey Kurland (id:1289130)
       瑞恩·艾伦 Ryan Allen (id:1247853)
       沃尔夫冈·施特格曼 Wolfgang Stegemann (id:1199936)
       韦德·伊斯特伍德 Wade Eastwood (id:1276502)

◎简  介
  伊森·亨特(汤姆·克鲁斯饰)和队友们接到了追回三个大杀伤性核武器的任务。眼见任务马上就能完成,但为了挽救其中一位队友卢瑟(文·瑞姆斯饰)的生命,三个核武器被人趁机带走。中情局负责人斯隆女士(安吉拉·贝塞特饰)调来她手下的得意猛将沃克(亨利·卡维尔饰),让他盯着伊森·亨特完成追回核武器的任务。期间,女特工伊尔莎(丽贝卡·弗格森饰)突然出现,伊森·亨特发现,他要面对的并不只是恐怖分子,还有潜藏在政府部门的内鬼。

◎获奖情况 (共15项)
  第72届英国电影学院奖 (2019)
  电影奖 最佳音效(提名)

  第42届日本电影学院奖 (2019)
  最佳外语片(提名)

  第25届美国演员工会奖 (2019)
  电影最佳特技群戏(提名)

  第23届美国艺术指导工会奖 (2019)
  电影奖 最佳当代电影艺术指导(提名)
   └──彼得·文汉姆 (id:1300702)

  第66届美国音效剪辑协会奖 (2019)
  金卷轴奖 最佳电影音效剪辑(提名)
  金卷轴奖 最佳电影对白剪辑(提名)
  金卷轴奖 最佳配乐剪辑(提名)

  第24届美国评论家选择电影奖 (2019)
  最佳动作片
  最佳视觉效果(提名)

  第39届伦敦影评人协会奖 (2019)
  技术成就奖(提名)
   └──韦德·伊斯特伍德 (id:1276502)

  第31届芝加哥影评人协会奖 (2018)
  最佳视觉效果(提名)

  第17届旧金山影评人协会奖 (2018)
  最佳剪辑(提名)

  第22届美国在线影评人协会奖 (2019)
  最佳剪辑
  最佳动作指导

  第5届豆瓣电影年度榜单 (2018)
  评分最高的外语电影(提名)

  1. ##### MediaInfo ######
  2. General
  3. Unique ID                                : 36519251873744736863472305404871663760 (0x1B795A21753679A19D398E4690FB6090)
  4. Complete name                            : Mission.Impossible.Fallout.2018.BluRay.2160p.x265.10bit.HDR.2Audio-MiniHD.mkv
  5. Format                                   : Matroska
  6. Format version                           : Version 4
  7. File size                                : 30.1 GiB
  8. Duration                                 : 2 h 27 min
  9. Overall bit rate mode                    : Variable
  10. Overall bit rate                         : 29.2 Mb/s
  11. Encoded date                             : UTC 2018-12-05 02:20:06
  12. Writing application                      : mkvmerge v20.0.0 ('I Am The Sun') 64-bit
  13. Writing library                          : libebml v1.3.5 + libmatroska v1.4.8
  14. Video
  15. ID                                       : 1
  16. Format                                   : HEVC
  17. Format/Info                              : High Efficiency Video Coding
  18. Format profile                           : Main 10@L5.1@High
  19. HDR format                               : SMPTE ST 2086, HDR10 compatible
  20. Codec ID                                 : V_MPEGH/ISO/HEVC
  21. Duration                                 : 2 h 27 min
  22. Bit rate                                 : 18.4 Mb/s
  23. Width                                    : 3 840 pixels
  24. Height                                   : 2 160 pixels
  25. Display aspect ratio                     : 16:9
  26. Frame rate mode                          : Constant
  27. Frame rate                               : 23.976 (24000/1001/53354) FPS
  28. Color space                              : YUV
  29. Chroma subsampling                       : 4:2:0
  30. Bit depth                                : 10 bits
  31. Bits/(Pixel*Frame)                       : 0.093
  32. Stream size                              : 19.0 GiB (63%)
  33. Writing library                          : x265 2.8+4-g0ad419482+18:[Windows][GCC 7.1.0][64 bit] Yuuki 10bit
  34. Encoding settings                        : rc=crf / crf=20.0000 / qcomp=0.70 / qpstep=4 / vbv-maxrate=160000 / vbv-bufsize=160000 / vbv-init=0.9 / crf-max=0.0 / crf-min=0.0 / aq-mode=1 / aq-strength=0.80 / cbqpoffs=-3 / crqpoffs=-3 / ipratio=1.40 / pbratio=1.20 / psy-rd=2.00 / psy-rdoq=5.00 / deblock=-1:-1 / ref=5 / bframes=9 / b-adapt=2 / bframe-bias=0 / b-pyramid / b-intra / weightp / weightb / min-keyint=23 / max-keyint=300 / rc-lookahead=40 / gop-lookahead=0 / NTMzNTQ=uuDQuD2mJt9fsCf / scenecut=40 / radl=0 / max-cu-size=32 / min-cu-size=8 / me=3 / subme=4 / merange=25 / rdoq-level=2 / rd=4 / rdpenalty=1 / ----- / cutree / no-sao / no-rect / no-amp / no-open-gop / wpp / no-pmode / no-pme / no-psnr / no-ssim / nr-intra=0 / nr-inter=0 / no-constrained-intra / no-strong-intra-smoothing / max-tu-size=32 / tu-inter-depth=2 / tu-intra-depth=2 / limit-tu=4 / qg-size=32 / qpmax=69 / qpmin=0 / ----- / cpuid=533541111039 / frame-threads=6 / numa-pools=84,- / log-level=2 / input-csp=1 / input-res=3840x2160 / interlace=0 / level-idc=0 / high-tier=1 / uhd-bd=0 / no-allow-non-conformance / no-repeat-headers / no-aud / hrd / info / hash=0 / no-temporal-layers / lookahead-slices=4 / no-intra-refresh / dynamic-rd=0.00 / no-ssim-rd / signhide / no-tskip / max-merge=3 / limit-refs=2 / limit-modes / temporal-mvp / no-analyze-src-pics / no-sao-non-deblock / no-early-skip / no-rskip / no-fast-intra / no-tskip-fast / no-cu-lossless / no-splitrd-skip / no-rd-refine / no-lossless / zone-count=0 / no-strict-cbr / no-rc-grain / no-const-vbv / sar=0 / overscan=0 / videoformat=5 / range=0 / colorprim=9 / transfer=16 / colormatrix=9 / chromaloc=0 / display-window=0 / master-display=G(13250,34500)B(7500,3000)R(34000,16000)WP(15635,16450)L(10000000,1) / max-cll=0,0 / min-luma=0 / max-luma=1023 / log2-max-poc-lsb=8 / vui-timing-info / vui-hrd-info / slices=1 / no-opt-qp-pps / no-opt-ref-list-length-pps / no-multi-pass-opt-rps / scenecut-bias=0.05 / no-opt-cu-delta-qp / no-aq-motion / hdr / hdr-opt / no-dhdr10-opt / no-idr-recovery-sei / analysis-reuse-level=5 / scale-factor=0 / refine-intra=0 / refine-inter=0 / refine-mv=0 / no-limit-sao / ctu-info=0 / no-lowpass-dct / refine-mv-type=0 / copy-pic=1 / max-ausize-factor=1.0 / no-dynamic-refine / no-single-sei
  35. Default                                  : Yes
  36. Forced                                   : No
  37. Color range                              : Limited
  38. Color primaries                          : BT.2020
  39. Transfer characteristics                 : PQ
  40. Matrix coefficients                      : BT.2020 non-constant
  41. Mastering display color primaries        : Display P3
  42. Mastering display luminance              : min: 0.0001 cd/m2, max: 1000 cd/m2
  43. Audio #1
  44. ID                                       : 2
  45. Format                                   : MLP FBA 16-ch
  46. Format/Info                              : Meridian Lossless Packing FBA with 16-channel presentation
  47. Commercial name                          : Dolby TrueHD with Dolby Atmos
  48. Codec ID                                 : A_TRUEHD
  49. Duration                                 : 2 h 27 min
  50. Bit rate mode                            : Variable
  51. Bit rate                                 : 5 026 kb/s
  52. Maximum bit rate                         : 8 175 kb/s
  53. Channel(s)                               : 8 channels
  54. Channel layout                           : L R C LFE Ls Rs Lb Rb
  55. Sampling rate                            : 48.0 kHz
  56. Frame rate                               : 1 200.000 FPS (40 SPF)
  57. Compression mode                         : Lossless
  58. Stream size                              : 5.17 GiB (17%)
  59. Title                                    : 英语全景声
  60. Language                                 : English
  61. Default                                  : Yes
  62. Forced                                   : No
  63. Number of dynamic objects                : 11
  64. Bed channel count                        : 1 channel
  65. Bed channel configuration                : LFE
  66. Audio #2
  67. ID                                       : 3
  68. Format                                   : DTS XLL
  69. Format/Info                              : Digital Theater Systems
  70. Commercial name                          : DTS-HD Master Audio
  71. Codec ID                                 : A_DTS
  72. Duration                                 : 2 h 27 min
  73. Bit rate mode                            : Variable
  74. Bit rate                                 : 5 550 kb/s
  75. Channel(s)                               : 8 channels
  76. Channel layout                           : C L R LFE Lb Rb Lss Rss
  77. Sampling rate                            : 48.0 kHz
  78. Frame rate                               : 93.750 FPS (512 SPF)
  79. Bit depth                                : 24 bits
  80. Compression mode                         : Lossless
  81. Stream size                              : 5.71 GiB (19%)
  82. Title                                    : 上译国语DTSHD
  83. Language                                 : Chinese
  84. Default                                  : No
  85. Forced                                   : No
  86. Text #1
  87. ID                                       : 4
  88. Format                                   : PGS
  89. Muxing mode                              : zlib
  90. Codec ID                                 : S_HDMV/PGS
  91. Codec ID/Info                            : Picture based subtitle format used on BDs/HD-DVDs
  92. Duration                                 : 2 h 20 min
  93. Bit rate                                 : 78.3 kb/s
  94. Count of elements                        : 6833
  95. Stream size                              : 78.7 MiB (0%)
  96. Title                                    : 国配简中特效
  97. Language                                 : Chinese
  98. Default                                  : Yes
  99. Forced                                   : No
  100. Text #2
  101. ID                                       : 5
  102. Format                                   : PGS
  103. Muxing mode                              : zlib
  104. Codec ID                                 : S_HDMV/PGS
  105. Codec ID/Info                            : Picture based subtitle format used on BDs/HD-DVDs
  106. Duration                                 : 2 h 20 min
  107. Bit rate                                 : 110 kb/s
  108. Count of elements                        : 6585
  109. Stream size                              : 111 MiB (0%)
  110. Title                                    : 简英双语特效
  111. Language                                 : Chinese
  112. Default                                  : No
  113. Forced                                   : No
  114. Text #3
  115. ID                                       : 6
  116. Format                                   : PGS
  117. Muxing mode                              : zlib
  118. Codec ID                                 : S_HDMV/PGS
  119. Codec ID/Info                            : Picture based subtitle format used on BDs/HD-DVDs
  120. Duration                                 : 2 h 26 min
  121. Bit rate                                 : 18.7 kb/s
  122. Count of elements                        : 2740
  123. Stream size                              : 19.6 MiB (0%)
  124. Title                                    : R3简中
  125. Language                                 : Chinese
  126. Default                                  : No
  127. Forced                                   : No
  128. Text #4
  129. ID                                       : 7
  130. Format                                   : PGS
  131. Muxing mode                              : zlib
  132. Codec ID                                 : S_HDMV/PGS
  133. Codec ID/Info                            : Picture based subtitle format used on BDs/HD-DVDs
  134. Duration                                 : 2 h 26 min
  135. Bit rate                                 : 15.7 kb/s
  136. Count of elements                        : 2857
  137. Stream size                              : 16.4 MiB (0%)
  138. Title                                    : R3繁中-TW
  139. Language                                 : Chinese
  140. Default                                  : No
  141. Forced                                   : No
  142. Text #5
  143. ID                                       : 8
  144. Format                                   : PGS
  145. Muxing mode                              : zlib
  146. Codec ID                                 : S_HDMV/PGS
  147. Codec ID/Info                            : Picture based subtitle format used on BDs/HD-DVDs
  148. Duration                                 : 2 h 26 min
  149. Bit rate                                 : 15.7 kb/s
  150. Count of elements                        : 2758
  151. Stream size                              : 16.4 MiB (0%)
  152. Title                                    : R3繁中-HK
  153. Language                                 : Chinese
  154. Default                                  : No
  155. Forced                                   : No
  156. Text #6
  157. ID                                       : 9
  158. Format                                   : PGS
  159. Muxing mode                              : zlib
  160. Codec ID                                 : S_HDMV/PGS
  161. Codec ID/Info                            : Picture based subtitle format used on BDs/HD-DVDs
  162. Duration                                 : 2 h 19 min
  163. Bit rate                                 : 28.4 kb/s
  164. Count of elements                        : 3111
  165. Stream size                              : 28.3 MiB (0%)
  166. Title                                    : 英文
  167. Language                                 : English
  168. Default                                  : No
  169. Forced                                   : No
  170. Menu
  171. 00:00:00.000                             : en:00:00:00.000
  172. 00:10:37.011                             : en:00:10:37.011
  173. 00:17:11.405                             : en:00:17:11.405
  174. 00:26:57.241                             : en:00:26:57.241
  175. 00:35:56.654                             : en:00:35:56.654
  176. 00:49:18.414                             : en:00:49:18.414
  177. 01:00:00.806                             : en:01:00:00.806
  178. 01:10:23.719                             : en:01:10:23.719
  179. 01:17:07.289                             : en:01:17:07.289
  180. 01:28:28.470                             : en:01:28:28.470
  181. 01:39:09.652                             : en:01:39:09.652
  182. 01:46:26.547                             : en:01:46:26.547
  183. 01:55:45.564                             : en:01:55:45.564
  184. 02:03:10.592                             : en:02:03:10.592
  185. 02:14:00.908                             : en:02:14:00.908
  186. 02:19:48.088                             : en:02:19:48.088





此处一般会放置磁力链或种子下载链接,不过此链接需要注册会员才能看到,点击“立即注册”
磁力链下载【下载链接仅对注册会员开放,登陆后可见】
BT9527电影天堂 1、BT9527电影天堂提供的BT文件均来源于互联网抓取,只供网友学习交流、技术提升使用。
2、我们遵守BitTorrent点对点协议原则,任何版权问题请联系原资源发布商,我们不处理任何版权纠纷,谢谢!如有争议请联系邮箱:BT9527#hotmail.com(#换成@)
3、如果您发现某页面或地址有错误,请联系站长邮箱BT9527#hotmail.com(#换成@),我们会尽快处理。您的热心是对BT9527电影天堂最大的支持。
4、本站建议去正规影院观看电影以支持电影行业发展。
最新回复 (0)

你可以在 登录 or 注册 后,对此帖发表评论!

返回
发新帖