金钱男孩[国语配音].Money.Boys.2021.1080p.MUBI.WEB-DL.AAC2.0.x264-CTRLWEB 4.11GB

版主小s 3月前 165

✔资源类型:WEB-1080P   ✔电影年份:2021   ✔电影地区:其他   ✔电影分类:剧情

◎译  名 金钱男孩 / Moneyboys / 寻找
◎片  名 Money Boys
◎年  代 2021
◎产  地 奥地利 / 法国 / 比利时 / 中国台湾
◎类  别 剧情 / 同性 / 家庭
◎语  言 汉语普通话
◎上映日期 2021-11-19(中国台湾) / 2021-07-12(戛纳电影节)
◎IMDb链接 https://www.imdb.com/title/tt11783988/
◎豆瓣评分 4.4/10 (5372人评价)
◎豆瓣链接 https://movie.douban.com/subject/30331582/
◎片  长 118分钟
◎导  演 陈熠霖 Chen Bo Yilin (id:1421035)
◎编  剧 陈熠霖 Chen Bo Yilin (id:1421035)
◎演  员 柯震东 Kai Ko (id:1315611)
       林哲熹 JC Lin (id:1371841)
       曾美慧孜 Meihuizi Zeng (id:1316471)
       白宇帆 Yufan Bai (id:1405549)
       孙启恒 Qiheng Sun (id:1344537)
       卢彦泽 Zach lu (id:1389901)
       刘倩妏 Daphne Low (id:1379065)
       陈慕 Daniel Chen (id:1382171)
       蔡明修 Ming-shiou Tsai (id:1331662)
       黄镫辉 Huang Teng-Hui (id:1275481)
       林义雄 I-Hsiung Lin (id:1455566)
       高山峰 Mountain Kaoo (id:1333266)
       傅雷 Lei Fu (id:1344987)
       沈威年 Nelson (id:1314994)
       于乐诚 Joey Yu (id:1428833)
       杨志龙 Gino Yang (id:1434709)
       林明森 Ming-Sen Lin (id:1449164)
       陈冠廷 Kuan-Ting Chen (id:1451511)
       让-路易斯·维亚拉 Jean-Louis Vialard (id:1405405)

◎简  介
  来自乡村的年轻人「飞(柯震东饰)」独自一人来到城市,为了赚钱抚养家人成为性工作者,后来与同行的前辈「晓来(林哲熹饰)」成为恋人,但两人在一场意外后断了音讯。时隔五年,飞的同事纷纷出于家庭与社会压力而离开,唯有飞选择留在城市与同乡男友龙继续打拼,却与已结婚生子的晓来不期而遇。

◎获奖情况 (共3项)
  第74届戛纳电影节 (2021)
  金摄影机奖(导演处女作奖)(提名)
   └──陈熠霖 (id:1421035)
  一种关注单元 一种关注大奖(提名)
   └──陈熠霖 (id:1421035)
  酷儿棕榈奖(提名)
   └──陈熠霖 (id:1421035)

  1. ##### MediaInfo ######
  2. General
  3. Unique ID                                : 186305687220379987565907252391017482967 (0x8C292B91188AB2B0878C81F065CC8AD7)
  4. Complete name                            : Money.Boys.2021.1080p.MUBI.WEB-DL.AAC2.0.x264-CTRLWEB.mkv
  5. Format                                   : Matroska
  6. Format version                           : Version 4
  7. File size                                : 4.11 GiB
  8. Duration                                 : 2 h 0 min
  9. Overall bit rate                         : 4 902 kb/s
  10. Movie name                               : Money.Boys.2021
  11. Encoded date                             : UTC 2022-06-11 12:54:47
  12. Writing application                      : mkvmerge v63.0.0 ('Everything') 64-bit
  13. Writing library                          : libebml v1.4.2 + libmatroska v1.6.4
  14. Video
  15. ID                                       : 1
  16. Format                                   : AVC
  17. Format/Info                              : Advanced Video Codec
  18. Format profile                           : High@L4
  19. Format settings                          : CABAC / 4 Ref Frames
  20. Format settings, CABAC                   : Yes
  21. Format settings, Reference frames        : 4 frames
  22. Codec ID                                 : V_MPEG4/ISO/AVC
  23. Duration                                 : 2 h 0 min
  24. Bit rate mode                            : Constant
  25. Bit rate                                 : 4 770 kb/s
  26. Nominal bit rate                         : 5 500 kb/s / 5 500 kb/s
  27. Width                                    : 1 920 pixels
  28. Height                                   : 960 pixels
  29. Display aspect ratio                     : 2.000
  30. Frame rate mode                          : Constant
  31. Frame rate                               : 24.000 FPS
  32. Color space                              : YUV
  33. Chroma subsampling                       : 4:2:0
  34. Bit depth                                : 8 bits
  35. Scan type                                : Progressive
  36. Bits/(Pixel*Frame)                       : 0.108
  37. Stream size                              : 4.00 GiB (97%)
  38. Writing library                          : x264 core 155 r2917 0a84d98
  39. Encoding settings                        : cabac=1 / ref=3 / deblock=1:-1:-1 / analyse=0x3:0x113 / me=hex / subme=8 / psy=1 / psy_rd=1.00:0.15 / mixed_ref=1 / me_range=16 / chroma_me=1 / trellis=2 / 8x8dct=1 / cqm=0 / deadzone=21,11 / fast_pskip=1 / chroma_qp_offset=-3 / threads=24 / lookahead_threads=4 / sliced_threads=0 / nr=0 / decimate=1 / interlaced=0 / NTMzNTQ= / bluray_compat=0 / constrained_intra=0 / bframes=5 / b_pyramid=2 / b_adapt=1 / b_bias=0 / direct=3 / weightb=1 / open_gop=0 / weightp=2 / keyint=48 / keyint_min=25 / scenecut=0 / intra_refresh=0 / rc_lookahead=48 / rc=cbr / mbtree=1 / bitrate=5500 / ratetol=1.0 / qcomp=0.60 / qpmin=0 / qpmax=69 / qpstep=4 / vbv_maxrate=5500 / vbv_bufsize=11000 / nal_hrd=cbr / filler=1 / NTMzNTQ=LmsMAP37EqsCpk / ip_ratio=1.40 / aq=1:1.00
  40. Language                                 : Chinese
  41. Default                                  : Yes
  42. Forced                                   : No
  43. Color range                              : Limited
  44. Color primaries                          : BT.709
  45. Transfer characteristics                 : BT.709
  46. Matrix coefficients                      : BT.709
  47. Audio
  48. ID                                       : 2
  49. Format                                   : AAC LC
  50. Format/Info                              : Advanced Audio Codec Low Complexity
  51. Codec ID                                 : A_AAC-2
  52. Duration                                 : 2 h 0 min
  53. Bit rate                                 : 130 kb/s
  54. Channel(s)                               : 2 channels
  55. Channel layout                           : L R
  56. Sampling rate                            : 48.0 kHz
  57. Frame rate                               : 46.875 FPS (1024 SPF)
  58. Compression mode                         : Lossy
  59. Stream size                              : 111 MiB (3%)
  60. Language                                 : Chinese
  61. Default                                  : Yes
  62. Forced                                   : No
  63. Text #1
  64. ID                                       : 3
  65. Format                                   : UTF-8
  66. Codec ID                                 : S_TEXT/UTF8
  67. Codec ID/Info                            : UTF-8 Plain Text
  68. Duration                                 : 1 h 45 min
  69. Bit rate                                 : 28 b/s
  70. Count of elements                        : 764
  71. Stream size                              : 21.7 KiB (0%)
  72. Language                                 : English
  73. Default                                  : Yes
  74. Forced                                   : No
  75. Text #2
  76. ID                                       : 4
  77. Format                                   : UTF-8
  78. Codec ID                                 : S_TEXT/UTF8
  79. Codec ID/Info                            : UTF-8 Plain Text
  80. Duration                                 : 1 h 56 min
  81. Bit rate                                 : 26 b/s
  82. Count of elements                        : 761
  83. Stream size                              : 22.6 KiB (0%)
  84. Language                                 : Spanish
  85. Default                                  : No
  86. Forced                                   : No
  87. Text #3
  88. ID                                       : 5
  89. Format                                   : UTF-8
  90. Codec ID                                 : S_TEXT/UTF8
  91. Codec ID/Info                            : UTF-8 Plain Text
  92. Duration                                 : 1 h 45 min
  93. Bit rate                                 : 28 b/s
  94. Count of elements                        : 766
  95. Stream size                              : 22.4 KiB (0%)
  96. Language                                 : Italian
  97. Default                                  : No
  98. Forced                                   : No
  99. Text #4
  100. ID                                       : 6
  101. Format                                   : UTF-8
  102. Codec ID                                 : S_TEXT/UTF8
  103. Codec ID/Info                            : UTF-8 Plain Text
  104. Duration                                 : 1 h 45 min
  105. Bit rate                                 : 28 b/s
  106. Count of elements                        : 757
  107. Stream size                              : 22.2 KiB (0%)
  108. Language                                 : Turkish
  109. Default                                  : No
  110. Forced                                   : No





此处一般会放置磁力链或种子下载链接,不过此链接需要注册会员才能看到,点击“立即注册”
磁力链下载【下载链接仅对注册会员开放,登陆后可见】
BT9527电影天堂 1、BT9527电影天堂提供的BT文件均来源于互联网抓取,只供网友学习交流、技术提升使用。
2、我们遵守BitTorrent点对点协议原则,任何版权问题请联系原资源发布商,我们不处理任何版权纠纷,谢谢!如有争议请联系邮箱:BT9527#hotmail.com(#换成@)
3、如果您发现某页面或地址有错误,请联系站长邮箱BT9527#hotmail.com(#换成@),我们会尽快处理。您的热心是对BT9527电影天堂最大的支持。
4、本站建议去正规影院观看电影以支持电影行业发展。
最新回复 (0)

你可以在 登录 or 注册 后,对此帖发表评论!

返回
发新帖