小野田的丛林万夜[中文字幕].Onoda.10000.Nights.in.the.Jungle.2021.1080p.BluRay.DTS.x265-10bit-ENTHD 10.49GB

版主小s 20天前 31

✔资源类型:暂未分类   ✔电影年份:2021   ✔电影地区:其他   ✔电影分类:剧情

◎译  名 小野田的丛林万夜 / 10000 Nights in the Jungle / ONODA 一万夜を越えて
◎片  名 Onoda, 10 000 Nights in the Jungle
◎年  代 2021
◎产  地 法国 / 日本 / 德国 / 比利时 / 意大利 / 柬埔寨
◎类  别 剧情 / 战争 / 冒险
◎语  言 日语
◎上映日期 2021-07-07(戛纳电影节) / 2021-07-21(法国) / 2021-10-08(日本)
◎IMDb链接 https://www.imdb.com/title/tt9844938/
◎豆瓣评分 7.1/10 (268人评价)
◎豆瓣链接 https://movie.douban.com/subject/34940681/
◎片  长 165分钟
◎导  演 阿图·阿拉里 Arthur Harari (id:1402989)
◎编  剧 阿图·阿拉里 Arthur Harari (id:1402989)
       文森特·帕尔米耶 Vincent Poymiro (id:1358606)
◎演  员 远藤雄弥 Yuya Endo (id:1034528)
       津田宽治 Kanji Tsuda (id:1054163)
       足立智充 Tomomitsu Adachi (id:1324028)
       伊岛空 Ku Ijima (id:1434771)
       尾形一成 Issei Ogata (id:1033422)
       井之胁海 Kai Inowaki (id:1312156)
       岛田久作 Ky?saku Shimada (id:1142576)
       吉冈睦雄 Mutsuo Yoshioka (id:1347953)
       森冈龙 Ry? Morioka (id:1318963)
       松浦祐也 Y?ya Matsuura (id:1322459)
       仲野太贺 Taiga Nagano (id:1319077)
       千叶哲也 Tetsuya Chiba (id:1388850)
       诹访敦彦 Nobuhiro Suwa (id:1274322)
       凯瑟琳·马尔尚 Catherine Marchand (id:1467341)

◎简  介
  1944. Le Japon est sur le point de perdre la guerre. Une nouvelle génération d’officiers de renseignements est formée afin d’entraver l’avance de l’ennemi avec comme consigne de ne jamais se rendre. Parmi ces jeunes gens, un homme, sec, droit et déterminé, est envoyé sur une ?le des Philippines, son nom : Hiroo Onoda. Il a 22 ans.                                       
                                    Pour l’Empire la guerre durera encore une année...

◎获奖情况 (共5项)
  第74届戛纳电影节 (2021)
  一种关注单元 一种关注大奖(提名)
   └──阿图·阿拉里 (id:1402989)

  第47届法国凯撒电影奖 (2022)
  最佳影片(提名)
  最佳导演(提名)
   └──阿图·阿拉里 (id:1402989)
  最佳原创剧本
  最佳摄影(提名)

  1. ##### MediaInfo ######
  2. General
  3. Unique ID                                : 219501023678290537203944422188359834141 (0xA5225C03C5D0FF996D6B0B4C4B1B5A1D)
  4. Complete name                            : Onoda.10000.Nights.in.the.Jungle.2021.1080p.BluRay.DTS.x265-10bit-ENTHD.mkv
  5. Format                                   : Matroska
  6. Format version                           : Version 4
  7. File size                                : 10.5 GiB
  8. Duration                                 : 2 h 46 min
  9. Overall bit rate                         : 9 005 kb/s
  10. Movie name                               : Onoda 10000 Nights in the Jungle 2021 1080p BluRay DTS x265-10bit-HDS
  11. Encoded date                             : UTC 2022-06-11 10:56:11
  12. Writing application                      : mkvmerge v67.0.0 ('Under Stars') 64-bit
  13. Writing library                          : libebml v1.4.2 + libmatroska v1.6.4 / Lavf59.17.101
  14. Video
  15. ID                                       : 1
  16. Format                                   : HEVC
  17. Format/Info                              : High Efficiency Video Coding
  18. Format profile                           : Main 10@L5.1@High
  19. Codec ID                                 : V_MPEGH/ISO/HEVC
  20. Duration                                 : 2 h 46 min
  21. Bit rate                                 : 7 471 kb/s
  22. Width                                    : 1 920 pixels
  23. Height                                   : 1 072 pixels
  24. Display aspect ratio                     : 16:9
  25. Frame rate mode                          : Constant
  26. Frame rate                               : 25.000 FPS
  27. Color space                              : YUV
  28. Chroma subsampling                       : 4:2:0
  29. Bit depth                                : 10 bits
  30. Bits/(Pixel*Frame)                       : 0.145
  31. Stream size                              : 8.71 GiB (83%)
  32. Title                                    : GalenMao@HDSky
  33. Default                                  : No
  34. Forced                                   : No
  35. Audio
  36. ID                                       : 2
  37. Format                                   : DTS
  38. Format/Info                              : Digital Theater Systems
  39. Codec ID                                 : A_DTS
  40. Duration                                 : 2 h 46 min
  41. Bit rate mode                            : Constant
  42. Bit rate                                 : 1 509 kb/s
  43. Channel(s)                               : 6 channels
  44. Channel layout                           : C L R Ls Rs LFE
  45. Sampling rate                            : 48.0 kHz
  46. Frame rate                               : 93.750 FPS (512 SPF)
  47. Bit depth                                : 24 bits
  48. Compression mode                         : Lossy
  49. Stream size                              : 1.76 GiB (17%)
  50. Title                                    : Japanese
  51. Language                                 : Japanese
  52. Default                                  : Yes
  53. Forced                                   : No
  54. Text #1
  55. ID                                       : 3
  56. Format                                   : PGS
  57. Muxing mode                              : zlib
  58. Codec ID                                 : S_HDMV/PGS
  59. Codec ID/Info                            : Picture based subtitle format used on BDs/HD-DVDs
  60. Duration                                 : 2 h 35 min
  61. Bit rate                                 : 13.5 kb/s
  62. Count of elements                        : 2305
  63. Stream size                              : 15.0 MiB (0%)
  64. Title                                    : CHS
  65. Language                                 : Chinese
  66. Default                                  : Yes
  67. Forced                                   : No
  68. Text #2
  69. ID                                       : 4
  70. Format                                   : PGS
  71. Muxing mode                              : zlib
  72. Codec ID                                 : S_HDMV/PGS
  73. Codec ID/Info                            : Picture based subtitle format used on BDs/HD-DVDs
  74. Duration                                 : 2 h 35 min
  75. Bit rate                                 : 25.8 kb/s
  76. Count of elements                        : 2252
  77. Stream size                              : 28.7 MiB (0%)
  78. Title                                    : ENG
  79. Language                                 : English
  80. Default                                  : Yes
  81. Forced                                   : No
  82. Menu
  83. 00:00:00.000                             : en:第 01 章
  84. 00:08:21.960                             : en:第 02 章
  85. 00:13:37.920                             : en:第 03 章
  86. 00:25:51.120                             : en:第 04 章
  87. 00:33:01.920                             : en:第 05 章
  88. 00:40:04.720                             : en:第 06 章
  89. 00:54:29.760                             : en:第 07 章
  90. 01:03:34.480                             : en:第 08 章
  91. 01:11:58.200                             : en:第 09 章
  92. 01:28:27.360                             : en:第 10 章
  93. 01:46:36.960                             : en:第 11 章
  94. 02:04:05.960                             : en:第 12 章
  95. 02:11:07.760                             : en:第 13 章
  96. 02:27:48.600                             : en:第 14 章
  97. 02:32:25.120                             : en:第 15 章
  98. 02:41:01.280                             : en:第 16 章





此处一般会放置磁力链或种子下载链接,不过此链接需要注册会员才能看到,点击“立即注册”
磁力链下载【下载链接仅对注册会员开放,登陆后可见】
BT9527电影天堂 1、BT9527电影天堂提供的BT文件均来源于互联网抓取,只供网友学习交流、技术提升使用。
2、我们遵守BitTorrent点对点协议原则,任何版权问题请联系原资源发布商,我们不处理任何版权纠纷,谢谢!如有争议请联系邮箱:BT9527#hotmail.com(#换成@)
3、如果您发现某页面或地址有错误,请联系站长邮箱BT9527#hotmail.com(#换成@),我们会尽快处理。您的热心是对BT9527电影天堂最大的支持。
4、本站建议去正规影院观看电影以支持电影行业发展。
最新回复 (0)

你可以在 登录 or 注册 后,对此帖发表评论!

返回
发新帖