钢琴课[国英多音轨/中英特效字幕].The.Piano.1993.UHD.BluRay.2160p.x265.10bit.HDR.4Audios-MiniHD 21.58GB

版主小s 17天前 24

✔资源类型:BD-4K   ✔电影年份:更 早   ✔电影地区:其他   ✔电影分类:剧情

◎译  名 钢琴课 / 钢琴别恋(港) / 钢琴师和她的情人(台) / 奇情孽恋 / Piano
◎片  名 The Piano
◎年  代 1993
◎产  地 新西兰 / 澳大利亚 / 法国
◎类  别 剧情 / 爱情 / 音乐
◎语  言 英语 / 英国手语 / 毛利语
◎上映日期 1993-05-17(戛纳电影节) / 1993-05-19(法国) / 1993-08-05(澳大利亚)
◎IMDb链接 https://www.imdb.com/title/tt0107822/
◎豆瓣评分 8.1/10 (87274人评价)
◎豆瓣链接 https://movie.douban.com/subject/1293818/
◎片  长 121分钟
◎导  演 简·坎皮恩 Jane Campion (id:1045008)
◎编  剧 简·坎皮恩 Jane Campion (id:1045008)
◎演  员 霍利·亨特 Holly Hunter (id:1031838)
       哈威·凯特尔 Harvey Keitel (id:1048131)
       山姆·尼尔 Sam Neill (id:1049525)
       安娜·帕奎因 Anna Paquin (id:1012515)
       克利夫·柯蒂斯 Cliff Curtis (id:1022578)
       克里·沃克 Kerry Walker (id:1166989)
       吉娜维夫·莱蒙 Geneviève Lemon (id:1289782)
       伊恩·穆内 Ian Mune (id:1292702)
       佩特·史密斯 Pete Smith (id:1297921)
       布鲁克·奥佩斯 Bruce Allpress (id:1056629)
       罗丝·麦克莱弗 Rose McIver (id:1027253)
       迈克尔·尼曼 Michael Nyman (id:1000684)
       斯蒂芬·帕普斯 Stephen Papps (id:1293921)
       Guy Moana Guy Moana (id:1292266)
       Jon Brazier Jon Brazier (id:1279225)
       户田惠子 Keiko Toda (id:1051741)
       斯图尔特·瑞伯 Stuart Dryburgh (id:1002952)
       维罗妮卡·詹尼特 Veronika Jenet (id:1285772)
       安德鲁·麦克阿尔平 Andrew McAlpine (id:1291406)
       珍妮特·帕特森 Janet Patterson (id:1294093)
       渡边纪子 Noriko Watanabe (id:1300483)
       Bob McCarron Bob McCarron (id:1291448)
       凯瑟琳·詹姆斯 Katherine James (id:1287575)
       Colin Englert Colin Englert (id:1283213)

◎简  介
  苏格兰单身母亲艾达·麦格拉斯(霍利·亨特 饰)自六岁起就放弃了讲话,只通过钢琴倾诉满腔情感。1852年,麦格拉斯远嫁新西兰的斯图尔特(山姆·尼尔 饰),将钢琴也一并带了去。可是斯图尔特人手不够,只得将笨重的钢琴遗弃海滩。斯图尔特之友乔治·贝恩斯(哈维·凯特尔 饰)爱上了麦格拉斯,用八十英亩土地与斯图尔特交易。斯图尔特转让了钢琴,并命麦格拉斯教贝恩斯奏琴。钢琴课上,贝恩斯提议,如果麦格拉斯在教琴的时候允许某些出格的事情发生,一次课便可换回一个琴键……

◎获奖情况 (共28项)
  第66届奥斯卡金像奖 (1994)
  最佳影片(提名)
   └──简·查普曼 (id:1001256)
  最佳导演(提名)
   └──简·坎皮恩 (id:1045008)
  最佳女主角
   └──霍利·亨特 (id:1031838)
  最佳女配角
   └──安娜·帕奎因 (id:1012515)
  最佳原创剧本
   └──简·坎皮恩 (id:1045008)
  最佳摄影(提名)
   └──斯图尔特·瑞伯 (id:1002952)
  最佳剪辑(提名)
   └──维罗妮卡·詹尼特 (id:1285772)
  最佳服装设计(提名)
   └──珍妮特·帕特森 (id:1294093)

  第46届戛纳电影节 (1993)
  主竞赛单元 金棕榈奖
   └──简·坎皮恩 (id:1045008)
  主竞赛单元 最佳女演员
   └──霍利·亨特 (id:1031838)

  第51届金球奖 (1994)
  电影类 最佳剧情片(提名)
  电影类 最佳导演(提名)
   └──简·坎皮恩 (id:1045008)
  电影类 剧情片最佳女主角
   └──霍利·亨特 (id:1031838)
  电影类 最佳女配角(提名)
   └──安娜·帕奎因 (id:1012515)
  电影类 最佳编剧(提名)
   └──简·坎皮恩 (id:1045008)
  电影类 最佳原创配乐(提名)
   └──迈克尔·尼曼 (id:1000684)

  第47届英国电影学院奖 (1994)
  电影奖 最佳影片(提名)
  电影奖 最佳导演(提名)
   └──简·坎皮恩 (id:1045008)
  电影奖 最佳女主角
   └──霍利·亨特 (id:1031838)
  电影奖 最佳原创剧本(提名)
   └──简·坎皮恩 (id:1045008)
  电影奖 最佳摄影(提名)
   └──斯图尔特·瑞伯 (id:1002952)
  电影奖 最佳剪辑(提名)
   └──维罗妮卡·詹尼特 (id:1285772)
  电影奖 最佳服装设计
   └──珍妮特·帕特森 (id:1294093)
  电影奖 最佳艺术指导
   └──安德鲁·麦克阿尔平 (id:1291406)
  电影奖 最佳原创音乐(提名)
   └──迈克尔·尼曼 (id:1000684)
  电影奖 最佳音效(提名)

  第18届日本电影学院奖 (1995)
  最佳外语片(提名)

  第19届法国凯撒电影奖 (1994)
  最佳外语片

  1. ##### MediaInfo ######
  2. General
  3. Unique ID                                : 119800381070303069823986274445714384792 (0x5A20B6D0E93B6F3C57A848806675E798)
  4. Complete name                            : The.Piano.1993.UHD.BluRay.2160p.x265.10bit.HDR.4Audios-MiniHD.mkv
  5. Format                                   : Matroska
  6. Format version                           : Version 4
  7. File size                                : 21.6 GiB
  8. Duration                                 : 2 h 0 min
  9. Overall bit rate mode                    : Variable
  10. Overall bit rate                         : 25.6 Mb/s
  11. Encoded date                             : UTC 2022-04-03 01:44:30
  12. Writing application                      : mkvmerge v66.0.0 ('Josie') 64-bit
  13. Writing library                          : libebml v1.4.2 + libmatroska v1.6.4
  14. Video
  15. ID                                       : 1
  16. Format                                   : HEVC
  17. Format/Info                              : High Efficiency Video Coding
  18. Format profile                           : Main 10@L5.1@High
  19. HDR format                               : SMPTE ST 2086, HDR10 compatible
  20. Codec ID                                 : V_MPEGH/ISO/HEVC
  21. Duration                                 : 2 h 0 min
  22. Bit rate                                 : 19.3 Mb/s
  23. Width                                    : 3 840 pixels
  24. Height                                   : 2 076 pixels
  25. Display aspect ratio                     : 1.85:1
  26. Frame rate mode                          : Constant
  27. Frame rate                               : 23.976 (24000/1001/53354) FPS
  28. Color space                              : YUV
  29. Chroma subsampling                       : 4:2:0
  30. Bit depth                                : 10 bits
  31. Bits/(Pixel*Frame)                       : 0.101
  32. Stream size                              : 16.3 GiB (76%)
  33. Writing library                          : x265 3.3+3-g8f8e332f1+29:[Windows][#Erg`Djh#][@Yuuki] made by @Dongfangbubai
  34. Encoding settings                        : rc=crf / crf=19.0000 / qcomp=0.70 / qpstep=4 / stats-write=0 / stats-read=0 / vbv-maxrate=160000 / vbv-bufsize=160000 / vbv-init=0.9 / crf-max=0.0 / crf-min=0.0 / no-lossless / no-cu-lossless / aq-mode=3 / aq-strength=0.80 / cbqpoffs=-3 / crqpoffs=-3 / ipratio=1.40 / pbratio=1.30 / psy-rd=2.00 / psy-rdoq=3.00 / deblock=-1:-1 / ref=5 / limit-refs=0 / no-limit-modes / bframes=8 / b-adapt=2 / bframe-bias=0 / b-pyramid / b-intra / weightp / weightb / min-keyint=23 / max-keyint=240 / rc-lookahead=60 / gop-lookahead=0 / NTMzNTQ=uuDQuD2mJt9fsCf / scenecut=40 / hist-scenecut=0 / radl=0 / max-cu-size=32 / min-cu-size=8 / me=3 / subme=4 / merange=25 / rdoq-level=2 / rd=4 / rdpenalty=1 / dynamic-rd=0.00 / no-rd-refine / ----- / no-cutree / no-sao / no-rect / no-amp / no-open-gop / wpp / pmode / pme / no-psnr / no-ssim / nr-intra=0 / nr-inter=0 / no-constrained-intra / no-strong-intra-smoothing / max-tu-size=32 / tu-inter-depth=2 / tu-intra-depth=2 / limit-tu=0 / qg-size=32 / qpmax=69 / qpmin=0 / ----- / cpuid=533541176575 / frame-threads=6 / numa-pools=54,- / log-level=2 / input-csp=1 / input-res=3840x2076 / interlace=0 / level-idc=0 / high-tier=1 / uhd-bd=0 / no-allow-non-conformance / repeat-headers / no-aud / hrd / info / hash=0 / no-temporal-layers / lookahead-slices=0 / no-splice / no-intra-refresh / no-ssim-rd / signhide / no-tskip / max-merge=3 / temporal-mvp / no-frame-dup / no-hme / no-analyze-src-pics / no-sao-non-deblock / selective-sao=0 / no-early-skip / no-rskip / no-fast-intra / no-tskip-fast / no-splitrd-skip / zone-count=0 / no-strict-cbr / no-rc-grain / no-const-vbv / sar=0 / overscan=0 / videoformat=5 / range=0 / colorprim=9 / transfer=16 / colormatrix=9 / chromaloc=0 / display-window=0 / master-display=G(13250,34500)B(7500,3000)R(34000,16000)WP(15635,16450)L(10000000,1) / cll=1000,86 / min-luma=0 / max-luma=1023 / log2-max-poc-lsb=8 / vui-timing-info / vui-hrd-info / slices=1 / no-opt-qp-pps / no-opt-ref-list-length-pps / no-multi-pass-opt-rps / scenecut-bias=0.05 / hist-threshold=0.01 / no-opt-cu-delta-qp / no-aq-motion / hdr10 / hdr10-opt / no-dhdr10-opt / no-idr-recovery-sei / analysis-reuse-level=0 / analysis-save-reuse-level=0 / analysis-load-reuse-level=0 / scale-factor=0 / refine-intra=0 / refine-inter=0 / refine-mv=1 / refine-ctu-distortion=0 / no-limit-sao / ctu-info=0 / no-lowpass-dct / refine-analysis-type=0 / copy-pic=1 / max-ausize-factor=1.0 / no-dynamic-refine / no-single-sei / no-hevc-aq / no-svt / no-field / qp-adaptation-range=1.00 / no-scenecut-aware-qpconformance-window-offsets / right=0 / bottom=0 / NTMzNTQ=
  35. Default                                  : Yes
  36. Forced                                   : No
  37. Color range                              : Limited
  38. Color primaries                          : BT.2020
  39. Transfer characteristics                 : PQ
  40. Matrix coefficients                      : BT.2020 non-constant
  41. Mastering display color primaries        : Display P3
  42. Mastering display luminance              : min: 0.0001 cd/m2, max: 1000 cd/m2
  43. Maximum Content Light Level              : 1000 cd/m2
  44. Maximum Frame-Average Light Level        : 86 cd/m2
  45. Audio #1
  46. ID                                       : 2
  47. ID in the original source medium         : 4352 (0x1100)
  48. Format                                   : DTS XLL
  49. Format/Info                              : Digital Theater Systems
  50. Commercial name                          : DTS-HD Master Audio
  51. Codec ID                                 : A_DTS
  52. Duration                                 : 2 h 0 min
  53. Bit rate mode                            : Variable
  54. Bit rate                                 : 2 887 kb/s
  55. Channel(s)                               : 6 channels
  56. Channel layout                           : C L R Ls Rs LFE
  57. Sampling rate                            : 48.0 kHz
  58. Frame rate                               : 93.750 FPS (512 SPF)
  59. Bit depth                                : 24 bits
  60. Compression mode                         : Lossless
  61. Stream size                              : 2.44 GiB (11%)
  62. Title                                    : 英语
  63. Language                                 : English
  64. Default                                  : Yes
  65. Forced                                   : No
  66. Original source medium                   : Blu-ray
  67. Audio #2
  68. ID                                       : 3
  69. Format                                   : DTS XLL
  70. Format/Info                              : Digital Theater Systems
  71. Commercial name                          : DTS-HD Master Audio
  72. Codec ID                                 : A_DTS
  73. Duration                                 : 2 h 0 min
  74. Bit rate mode                            : Variable
  75. Bit rate                                 : 2 903 kb/s
  76. Channel(s)                               : 6 channels
  77. Channel layout                           : C L R Ls Rs LFE
  78. Sampling rate                            : 48.0 kHz
  79. Frame rate                               : 93.750 FPS (512 SPF)
  80. Bit depth                                : 24 bits
  81. Compression mode                         : Lossless
  82. Stream size                              : 2.45 GiB (11%)
  83. Title                                    : 央视新配国语
  84. Language                                 : Chinese
  85. Default                                  : No
  86. Forced                                   : No
  87. Audio #3
  88. ID                                       : 4
  89. Format                                   : AC-3
  90. Format/Info                              : Audio Coding 3
  91. Commercial name                          : Dolby Digital
  92. Codec ID                                 : A_AC3
  93. Duration                                 : 2 h 0 min
  94. Bit rate mode                            : Constant
  95. Bit rate                                 : 192 kb/s
  96. Channel(s)                               : 2 channels
  97. Channel layout                           : L R
  98. Sampling rate                            : 48.0 kHz
  99. Frame rate                               : 31.250 FPS (1536 SPF)
  100. Compression mode                         : Lossy
  101. Delay relative to video                  : 17 s 200 ms
  102. Stream size                              : 159 MiB (1%)
  103. Title                                    : 央视旧版国语
  104. Language                                 : Chinese
  105. Service kind                             : Complete Main
  106. Default                                  : No
  107. Forced                                   : No
  108. Audio #4
  109. ID                                       : 5
  110. Format                                   : AC-3
  111. Format/Info                              : Audio Coding 3
  112. Commercial name                          : Dolby Digital
  113. Codec ID                                 : A_AC3
  114. Duration                                 : 2 h 0 min
  115. Bit rate mode                            : Constant
  116. Bit rate                                 : 192 kb/s
  117. Channel(s)                               : 2 channels
  118. Channel layout                           : L R
  119. Sampling rate                            : 48.0 kHz
  120. Frame rate                               : 31.250 FPS (1536 SPF)
  121. Compression mode                         : Lossy
  122. Stream size                              : 166 MiB (1%)
  123. Title                                    : 上译内参国语
  124. Language                                 : Chinese
  125. Service kind                             : Complete Main
  126. Default                                  : No
  127. Forced                                   : No
  128. Text #1
  129. ID                                       : 6
  130. Format                                   : PGS
  131. Muxing mode                              : zlib
  132. Codec ID                                 : S_HDMV/PGS
  133. Codec ID/Info                            : Picture based subtitle format used on BDs/HD-DVDs
  134. Duration                                 : 1 h 56 min
  135. Bit rate                                 : 31.0 kb/s
  136. Count of elements                        : 2325
  137. Stream size                              : 25.8 MiB (0%)
  138. Title                                    : 央视旧版特效
  139. Language                                 : Chinese
  140. Default                                  : Yes
  141. Forced                                   : No
  142. Text #2
  143. ID                                       : 7
  144. Format                                   : PGS
  145. Muxing mode                              : zlib
  146. Codec ID                                 : S_HDMV/PGS
  147. Codec ID/Info                            : Picture based subtitle format used on BDs/HD-DVDs
  148. Duration                                 : 1 h 56 min
  149. Bit rate                                 : 36.7 kb/s
  150. Count of elements                        : 2447
  151. Stream size                              : 30.5 MiB (0%)
  152. Title                                    : 上译特效
  153. Language                                 : Chinese
  154. Default                                  : No
  155. Forced                                   : No
  156. Text #3
  157. ID                                       : 8
  158. Format                                   : PGS
  159. Muxing mode                              : zlib
  160. Codec ID                                 : S_HDMV/PGS
  161. Codec ID/Info                            : Picture based subtitle format used on BDs/HD-DVDs
  162. Duration                                 : 1 h 56 min
  163. Bit rate                                 : 43.9 kb/s
  164. Count of elements                        : 2354
  165. Stream size                              : 36.6 MiB (0%)
  166. Title                                    : 央视双语特效
  167. Language                                 : Chinese
  168. Default                                  : No
  169. Forced                                   : No
  170. Text #4
  171. ID                                       : 9
  172. Format                                   : PGS
  173. Muxing mode                              : zlib
  174. Codec ID                                 : S_HDMV/PGS
  175. Codec ID/Info                            : Picture based subtitle format used on BDs/HD-DVDs
  176. Duration                                 : 1 h 56 min
  177. Bit rate                                 : 41.3 kb/s
  178. Count of elements                        : 2327
  179. Stream size                              : 34.4 MiB (0%)
  180. Title                                    : R3双语特效
  181. Language                                 : Chinese
  182. Default                                  : No
  183. Forced                                   : No
  184. Text #5
  185. ID                                       : 10
  186. ID in the original source medium         : 4768 (0x12A0)
  187. Format                                   : PGS
  188. Muxing mode                              : zlib
  189. Codec ID                                 : S_HDMV/PGS
  190. Codec ID/Info                            : Picture based subtitle format used on BDs/HD-DVDs
  191. Duration                                 : 1 h 42 min
  192. Bit rate                                 : 1 929 b/s
  193. Count of elements                        : 112
  194. Stream size                              : 1.41 MiB (0%)
  195. Title                                    : 英文
  196. Language                                 : English
  197. Default                                  : No
  198. Forced                                   : No
  199. Original source medium                   : Blu-ray
  200. Menu
  201. 00:00:00.000                             : en:第 01 章
  202. 00:04:02.659                             : en:第 02 章
  203. 00:09:10.967                             : en:第 03 章
  204. 00:16:30.572                             : en:第 04 章
  205. 00:21:44.928                             : en:第 05 章
  206. 00:31:32.557                             : en:第 06 章
  207. 00:37:54.397                             : en:第 07 章
  208. 00:44:53.649                             : en:第 08 章
  209. 00:55:03.800                             : en:第 09 章
  210. 01:00:22.243                             : en:第 10 章
  211. 01:09:14.400                             : en:第 11 章
  212. 01:21:40.186                             : en:第 12 章
  213. 01:31:12.508                             : en:第 13 章
  214. 01:40:55.758                             : en:第 14 章
  215. 01:47:03.041                             : en:第 15 章
  216. 01:54:05.755                             : en:第 16 章
  217. 01:56:30.817                             : en:第 17 章





此处一般会放置磁力链或种子下载链接,不过此链接需要注册会员才能看到,点击“立即注册”
磁力链下载【下载链接仅对注册会员开放,登陆后可见】
BT9527电影天堂 1、BT9527电影天堂提供的BT文件均来源于互联网抓取,只供网友学习交流、技术提升使用。
2、我们遵守BitTorrent点对点协议原则,任何版权问题请联系原资源发布商,我们不处理任何版权纠纷,谢谢!如有争议请联系邮箱:BT9527#hotmail.com(#换成@)
3、如果您发现某页面或地址有错误,请联系站长邮箱BT9527#hotmail.com(#换成@),我们会尽快处理。您的热心是对BT9527电影天堂最大的支持。
4、本站建议去正规影院观看电影以支持电影行业发展。
最新回复 (0)

你可以在 登录 or 注册 后,对此帖发表评论!

返回
发新帖