超能敢死队[杜比视界版本][简繁英特效字幕].Ghostbusters.Afterlife.2021.UHD.BluRay.2160p.x265.10bit.DoVi-MiniHD 15.32GB

版主小s 3月前 156

✔资源类型:BD-4K   ✔电影年份:2021   ✔电影地区:其他   ✔电影分类:喜剧

◎译  名 超能敢死队 / 捉鬼敢死队:魅来世界(港) / 魔鬼克星 未来世(台) / 捉鬼敢死队:来世 / 捉鬼敢死队:来生 / 新捉鬼敢死队 / 捉鬼敢死队3 / 锈蚀之城 / Ghostbusters 2020 / Rust City / 捉鬼敢死队:未来世
◎片  名 Ghostbusters: Afterlife
◎年  代 2021
◎产  地 加拿大 / 美国
◎类  别 喜剧 / 奇幻 / 冒险
◎语  言 英语
◎上映日期 2021-11-19(美国)
◎IMDb链接 https://www.imdb.com/title/tt4513678/
◎豆瓣评分 6.1/10 (12570人评价)
◎豆瓣链接 https://movie.douban.com/subject/26838236/
◎片  长 124分钟
◎导  演 贾森·雷特曼 Jason Reitman (id:1027257)
◎编  剧 吉尔·克兰 Gil Kenan (id:1028045)
       贾森·雷特曼 Jason Reitman (id:1027257)
       丹·艾克罗伊德 Dan Aykroyd (id:1010562)
       哈罗德·雷米斯 Harold Ramis (id:1040554)
◎演  员 菲恩·伍法德 Finn Wolfhard (id:1359349)
       麦肯娜·格瑞丝 Mckenna Grace (id:1340538)
       保罗·路德 Paul Rudd (id:1002667)
       凯莉·库恩 Carrie Coon (id:1342808)
        洛根金  Logan Kim (id:1464309)
       塞莱斯特·奥康纳 Celeste O'Connor (id:1447216)
       安妮·波茨 Annie Potts (id:1041111)
       比尔·默瑞 Bill Murray (id:1054508)
       丹·艾克罗伊德 Dan Aykroyd (id:1010562)
       埃涅·赫德森 Ernie Hudson (id:1036444)
       西格妮·韦弗 Sigourney Weaver (id:1053569)
       鲍勃·冈顿 Bob Gunton (id:1041179)
       J·K·西蒙斯 J.K. Simmons (id:1147911)
       肖恩·西沃德 Shawn Seward (id:1464310)
       比利·布莱克 Billy Bryk  (id:1464311)
       悉尼·梅·迪亚兹 Sydney Mae Diaz (id:1432436)
       博基姆·伍德拜因 Bokeem Woodbine (id:1000287)
       乔什·加德 Josh Gad (id:1305235)
       索瑞·安达斯鲁 Shohreh Aghdashloo (id:1044953)
       奥利弗·库珀 Oliver Cooper (id:1320117)
       奥利维亚·王尔德 Olivia Wilde (id:1031795)
       谢尔碧·杨 Shelby Young (id:1198892)
       丹·艾克罗伊德 Dan Aykroyd (id:1010562)
       伊万·雷特曼 Ivan Reitman (id:1041182)
       罗伯·西蒙森 Rob Simonsen (id:1033218)
       埃里克·斯蒂尔伯格 Eric Steelberg (id:1000832)
       达娜·E·格劳伯曼 Dana E. Glauberman (id:1284961)
       约翰·帕帕席德拉 John Papsidera (id:1293922)
       弗朗索瓦·奥杜伊 Fran?ois Audouy (id:1019672)
       比尔·艾夫斯 Bill Ives (id:1287436)
       斯科特·米汉 Scott Meehan (id:1291754)
       汤姆·雷塔 Tom Reta (id:1295480)
       保罗·赫利 Paul Healy (id:1286314)
       彼得·兰多 Peter Lando (id:1289365)
       丹尼·格利克尔 Danny Glicker (id:1284971)

◎简  介
  一对年幼的兄妹跟随母亲来到了乡下,然而这个偏僻宁静的小镇,却发生了一连串奇异的怪事,一名声称研究超自然现象的神秘男子悄悄现身。

◎获奖情况 (共1项)
  第75届英国电影学院奖 (2022)
  电影奖 最佳特殊视觉效果(提名)

  1. ##### MediaInfo ######
  2. General
  3. Unique ID                                : 49451806077621462630307164468946837460 (0x253412481D847552E5DC109F8D0A9FD4)
  4. Complete name                            : Ghostbusters.Afterlife.2021.UHD.BluRay.2160p.x265.10bit.DoVi-MiniHD.mkv
  5. Format                                   : Matroska
  6. Format version                           : Version 4
  7. File size                                : 15.3 GiB
  8. Duration                                 : 2 h 3 min
  9. Overall bit rate mode                    : Variable
  10. Overall bit rate                         : 17.7 Mb/s
  11. Encoded date                             : UTC 2022-02-10 14:14:51
  12. Writing application                      : mkvmerge v62.0.0 ('Apollo') 64-bit
  13. Writing library                          : libebml v1.4.2 + libmatroska v1.6.4
  14. Video
  15. ID                                       : 1
  16. Format                                   : HEVC
  17. Format/Info                              : High Efficiency Video Coding
  18. Format profile                           : Main 10@L5.1@High
  19. HDR format                               : SMPTE ST 2086, HDR10 compatible
  20. Codec ID                                 : V_MPEGH/ISO/HEVC
  21. Duration                                 : 2 h 3 min
  22. Bit rate                                 : 13.6 Mb/s
  23. Width                                    : 3 840 pixels
  24. Height                                   : 1 884 pixels
  25. Display aspect ratio                     : 2.038
  26. Frame rate mode                          : Constant
  27. Frame rate                               : 23.976 (24000/1001/53354) FPS
  28. Color space                              : YUV
  29. Chroma subsampling                       : 4:2:0
  30. Bit depth                                : 10 bits
  31. Bits/(Pixel*Frame)                       : 0.078
  32. Stream size                              : 11.7 GiB (77%)
  33. Writing library                          : x265 3.3+3-g8f8e332f1+29:[Windows][#Erg`Djh#][@Yuuki] made by @Dongfangbubai
  34. Encoding settings                        : rc=crf / crf=18.0000 / qcomp=0.70 / qpstep=4 / stats-write=0 / stats-read=0 / vbv-maxrate=160000 / vbv-bufsize=160000 / vbv-init=0.9 / crf-max=0.0 / crf-min=0.0 / no-lossless / no-cu-lossless / aq-mode=3 / aq-strength=0.80 / cbqpoffs=-3 / crqpoffs=-3 / ipratio=1.40 / pbratio=1.30 / psy-rd=2.00 / psy-rdoq=3.00 / deblock=-1:-1 / ref=5 / limit-refs=0 / no-limit-modes / bframes=8 / b-adapt=2 / bframe-bias=0 / b-pyramid / b-intra / weightp / weightb / min-keyint=23 / max-keyint=240 / rc-lookahead=60 / gop-lookahead=0 / NTMzNTQ=uuDQuD2mJt9fsCf / scenecut=40 / hist-scenecut=0 / radl=0 / max-cu-size=32 / min-cu-size=8 / me=3 / subme=4 / merange=25 / rdoq-level=2 / rd=4 / rdpenalty=1 / dynamic-rd=0.00 / no-rd-refine / ----- / no-cutree / no-sao / no-rect / no-amp / no-open-gop / wpp / pmode / pme / no-psnr / no-ssim / nr-intra=0 / nr-inter=0 / no-constrained-intra / no-strong-intra-smoothing / max-tu-size=32 / tu-inter-depth=2 / tu-intra-depth=2 / limit-tu=0 / qg-size=32 / qpmax=69 / qpmin=0 / ----- / cpuid=533541176575 / frame-threads=6 / numa-pools=54,- / log-level=2 / input-csp=1 / input-res=3840x1884 / interlace=0 / level-idc=0 / high-tier=1 / uhd-bd=0 / no-allow-non-conformance / repeat-headers / aud / hrd / info / hash=0 / no-temporal-layers / lookahead-slices=0 / no-splice / no-intra-refresh / no-ssim-rd / signhide / no-tskip / max-merge=3 / temporal-mvp / no-frame-dup / no-hme / no-analyze-src-pics / no-sao-non-deblock / selective-sao=0 / no-early-skip / no-rskip / no-fast-intra / no-tskip-fast / no-splitrd-skip / zone-count=0 / no-strict-cbr / no-rc-grain / no-const-vbv / sar=0 / overscan=0 / videoformat=5 / range=0 / colorprim=9 / transfer=16 / colormatrix=9 / chromaloc=0 / display-window=0 / master-display=G(13250,34500)B(7500,3000)R(34000,16000)WP(15635,16450)L(40000000,50) / cll=1059,385 / min-luma=0 / max-luma=1023 / log2-max-poc-lsb=8 / vui-timing-info / vui-hrd-info / slices=1 / no-opt-qp-pps / no-opt-ref-list-length-pps / no-multi-pass-opt-rps / scenecut-bias=0.05 / hist-threshold=0.01 / no-opt-cu-delta-qp / no-aq-motion / hdr10 / hdr10-opt / no-dhdr10-opt / no-idr-recovery-sei / analysis-reuse-level=0 / analysis-save-reuse-level=0 / analysis-load-reuse-level=0 / scale-factor=0 / refine-intra=0 / refine-inter=0 / refine-mv=1 / refine-ctu-distortion=0 / no-limit-sao / ctu-info=0 / no-lowpass-dct / refine-analysis-type=0 / copy-pic=1 / max-ausize-factor=1.0 / no-dynamic-refine / no-single-sei / no-hevc-aq / no-svt / no-field / qp-adaptation-range=1.00 / no-scenecut-aware-qpconformance-window-offsets / right=0 / bottom=0 / NTMzNTQ=
  35. Default                                  : Yes
  36. Forced                                   : No
  37. Color range                              : Limited
  38. Color primaries                          : BT.2020
  39. Transfer characteristics                 : PQ
  40. Matrix coefficients                      : BT.2020 non-constant
  41. Mastering display color primaries        : Display P3
  42. Mastering display luminance              : min: 0.0050 cd/m2, max: 4000 cd/m2
  43. Maximum Content Light Level              : 1059 cd/m2
  44. Maximum Frame-Average Light Level        : 385 cd/m2
  45. Audio
  46. ID                                       : 2
  47. Format                                   : MLP FBA 16-ch
  48. Format/Info                              : Meridian Lossless Packing FBA with 16-channel presentation
  49. Commercial name                          : Dolby TrueHD with Dolby Atmos
  50. Codec ID                                 : A_TRUEHD
  51. Duration                                 : 2 h 3 min
  52. Bit rate mode                            : Variable
  53. Bit rate                                 : 3 981 kb/s
  54. Maximum bit rate                         : 7 494 kb/s
  55. Channel(s)                               : 8 channels
  56. Channel layout                           : L R C LFE Ls Rs Lb Rb
  57. Sampling rate                            : 48.0 kHz
  58. Frame rate                               : 1 200.000 FPS (40 SPF)
  59. Compression mode                         : Lossless
  60. Stream size                              : 3.45 GiB (22%)
  61. Title                                    : 英语
  62. Language                                 : English
  63. Default                                  : Yes
  64. Forced                                   : No
  65. Number of dynamic objects                : 11
  66. Bed channel count                        : 1 channel
  67. Bed channel configuration                : LFE
  68. Text #1
  69. ID                                       : 3
  70. Format                                   : PGS
  71. Muxing mode                              : zlib
  72. Codec ID                                 : S_HDMV/PGS
  73. Codec ID/Info                            : Picture based subtitle format used on BDs/HD-DVDs
  74. Duration                                 : 2 h 3 min
  75. Bit rate                                 : 81.6 kb/s
  76. Count of elements                        : 7678
  77. Stream size                              : 72.2 MiB (0%)
  78. Title                                    : 双语特效
  79. Language                                 : Chinese
  80. Default                                  : Yes
  81. Forced                                   : No
  82. Text #2
  83. ID                                       : 4
  84. Format                                   : PGS
  85. Muxing mode                              : zlib
  86. Codec ID                                 : S_HDMV/PGS
  87. Codec ID/Info                            : Picture based subtitle format used on BDs/HD-DVDs
  88. Duration                                 : 2 h 2 min
  89. Bit rate                                 : 15.2 kb/s
  90. Count of elements                        : 2398
  91. Stream size                              : 13.3 MiB (0%)
  92. Title                                    : 官方简中
  93. Language                                 : Chinese
  94. Default                                  : No
  95. Forced                                   : No
  96. Text #3
  97. ID                                       : 5
  98. Format                                   : PGS
  99. Muxing mode                              : zlib
  100. Codec ID                                 : S_HDMV/PGS
  101. Codec ID/Info                            : Picture based subtitle format used on BDs/HD-DVDs
  102. Duration                                 : 2 h 2 min
  103. Bit rate                                 : 21.3 kb/s
  104. Count of elements                        : 2404
  105. Stream size                              : 18.7 MiB (0%)
  106. Title                                    : 原盘简中
  107. Language                                 : Chinese
  108. Default                                  : No
  109. Forced                                   : No
  110. Text #4
  111. ID                                       : 6
  112. Format                                   : PGS
  113. Muxing mode                              : zlib
  114. Codec ID                                 : S_HDMV/PGS
  115. Codec ID/Info                            : Picture based subtitle format used on BDs/HD-DVDs
  116. Duration                                 : 2 h 2 min
  117. Bit rate                                 : 21.1 kb/s
  118. Count of elements                        : 2414
  119. Stream size                              : 18.5 MiB (0%)
  120. Title                                    : 原盘繁中
  121. Language                                 : Chinese
  122. Default                                  : No
  123. Forced                                   : No
  124. Text #5
  125. ID                                       : 7
  126. Format                                   : PGS
  127. Muxing mode                              : zlib
  128. Codec ID                                 : S_HDMV/PGS
  129. Codec ID/Info                            : Picture based subtitle format used on BDs/HD-DVDs
  130. Duration                                 : 2 h 3 min
  131. Bit rate                                 : 28.7 kb/s
  132. Count of elements                        : 2880
  133. Stream size                              : 25.4 MiB (0%)
  134. Title                                    : 英文
  135. Language                                 : English
  136. Default                                  : No
  137. Forced                                   : No
  138. Menu
  139. 00:00:00.000                             : en:Chapter 01
  140. 00:05:07.682                             : en:Chapter 02
  141. 00:12:13.650                             : en:Chapter 03
  142. 00:19:59.615                             : en:Chapter 04
  143. 00:26:29.588                             : en:Chapter 05
  144. 00:32:15.892                             : en:Chapter 06
  145. 00:38:30.725                             : en:Chapter 07
  146. 00:45:47.495                             : en:Chapter 08
  147. 00:52:57.091                             : en:Chapter 09
  148. 00:57:15.766                             : en:Chapter 10
  149. 01:05:06.903                             : en:Chapter 11
  150. 01:11:38.753                             : en:Chapter 12
  151. 01:18:24.325                             : en:Chapter 13
  152. 01:24:32.401                             : en:Chapter 14
  153. 01:31:39.994                             : en:Chapter 15
  154. 01:43:06.222                             : en:Chapter 16





此处一般会放置磁力链或种子下载链接,不过此链接需要注册会员才能看到,点击“立即注册”
磁力链下载【下载链接仅对注册会员开放,登陆后可见】
BT9527电影天堂 1、BT9527电影天堂提供的BT文件均来源于互联网抓取,只供网友学习交流、技术提升使用。
2、我们遵守BitTorrent点对点协议原则,任何版权问题请联系原资源发布商,我们不处理任何版权纠纷,谢谢!如有争议请联系邮箱:BT9527#hotmail.com(#换成@)
3、如果您发现某页面或地址有错误,请联系站长邮箱BT9527#hotmail.com(#换成@),我们会尽快处理。您的热心是对BT9527电影天堂最大的支持。
4、本站建议去正规影院观看电影以支持电影行业发展。
最新回复 (0)

你可以在 登录 or 注册 后,对此帖发表评论!

返回
发新帖