西部往事[国英多音轨/中英字幕].Once.Upon.a.Time.in.the.West.1968.BluRay.1080p.x265.10bit.2Audio-MiniHD 10.34GB

版主小s 3月前 121

✔资源类型:暂未分类   ✔电影年份:更 早   ✔电影地区:其他   ✔电影分类:剧情

◎译  名 西部往事 / 狂沙十万里 / 万里狂沙万里仇 / Once Upon a Time in the West
◎片  名 C'era una volta il West
◎年  代 1968
◎产  地 意大利 / 美国
◎类  别 剧情 / 犯罪 / 西部
◎语  言 英语
◎上映日期 1968-12-21
◎IMDb链接 https://www.imdb.com/title/tt0064116/
◎豆瓣评分 8.7/10 (47420人评价)
◎豆瓣链接 https://movie.douban.com/subject/1293394/
◎片  长 175分钟(意大利)
◎导  演 赛尔乔·莱昂内 Sergio Leone (id:1013894)
◎编  剧 赛尔乔·多纳蒂 Sergio Donati (id:1333472)
       米基·诺克斯 Mickey Knox (id:1016863)
       赛尔乔·莱昂内 Sergio Leone (id:1013894)
       达里奥·阿基多 Dario Argento (id:1049726)
       贝纳尔多·贝托鲁奇 Bernardo Bertolucci (id:1035651)
◎演  员 亨利·方达 Henry Fonda (id:1048150)
       查尔斯·布朗森 Charles Bronson (id:1041133)
       克劳迪娅·卡汀娜 Claudia Cardinale (id:1004514)
       杰森·罗巴兹 Jason Robards (id:1025236)
       杰克·伊莱姆 Jack Elam (id:1041162)
       伍迪·斯特罗德 Woody Strode (id:1025269)
       加布里埃尔·费泽蒂 Gabriele Ferzetti (id:1032394)
       基南·怀恩 Keenan Wynn (id:1025281)
       Bino Cicogna Bino Cicogna (id:1280805)
       恩尼奥·莫里康内 Ennio Morricone (id:1044688)
       托尼诺·德里·戈里 Tonino Delli Colli (id:1041877)
       尼诺·巴拉利 Nino Baragli (id:1277857)
       卡罗·斯密 Carlo Simi (id:1043001)
       卡罗·斯密 Carlo Simi (id:1043001)

◎简  介
  意大利西部片宗师瑟吉欧·莱昂的传世经典之作,继与克林伊斯威特合作「镖客三系列」之后,瑟吉欧·莱昂这部近三个小时的长篇钜作,被称之为影史上最伟大的西部片。                                    
                                故事叙述一名神秘客(查理士布朗逊)来到小镇上,被卷入一名寡妇(克劳蒂雅卡迪奈尔)与铁路大亨的土地抢夺战,此片最有趣的角色,是由一向形象正义的亨利方达,难得在此片中扮演一名冷面的残酷杀手,从头到尾几乎没有表情,只有嘴角偶尔小有动作,让人不寒而栗... 当年影片在美国上映时,曾因为片长过长而被片商修剪,导致故事架构含混不清,语焉不详。
  1. ##### MediaInfo ######
  2. General
  3. Unique ID                                : 206225958530017714757229401994695151149 (0x9B25ACC5378B560499EC5A287A860E2D)
  4. Complete name                            : Once.Upon.a.Time.in.the.West.1968.BluRay.1080p.x265.10bit.2Audio-MiniHD.mkv
  5. Format                                   : Matroska
  6. Format version                           : Version 4
  7. File size                                : 10.3 GiB
  8. Duration                                 : 2 h 46 min
  9. Overall bit rate                         : 8 916 kb/s
  10. Encoded date                             : UTC 2017-07-04 18:57:12
  11. Writing application                      : mkvmerge v11.0.0 ('Alive') 64bit
  12. Writing library                          : libebml v1.3.4 + libmatroska v1.4.5
  13. Video
  14. ID                                       : 1
  15. Format                                   : HEVC
  16. Format/Info                              : High Efficiency Video Coding
  17. Codec ID                                 : V_MPEGH/ISO/HEVC
  18. Duration                                 : 2 h 46 min
  19. Bit rate                                 : 7 650 kb/s
  20. Width                                    : 1 920 pixels
  21. Height                                   : 816 pixels
  22. Display aspect ratio                     : 2.35:1
  23. Frame rate mode                          : Constant
  24. Frame rate                               : 23.976 (24000/1001/53354) FPS
  25. Bits/(Pixel*Frame)                       : 0.204
  26. Stream size                              : 8.87 GiB (86%)
  27. Default                                  : Yes
  28. Forced                                   : No
  29. Audio #1
  30. ID                                       : 2
  31. Format                                   : AC-3
  32. Format/Info                              : Audio Coding 3
  33. Commercial name                          : Dolby Digital
  34. Codec ID                                 : A_AC3
  35. Duration                                 : 2 h 46 min
  36. Bit rate mode                            : Constant
  37. Bit rate                                 : 640 kb/s
  38. Channel(s)                               : 6 channels
  39. Channel layout                           : L R C LFE Ls Rs
  40. Sampling rate                            : 48.0 kHz
  41. Frame rate                               : 31.250 FPS (1536 SPF)
  42. Compression mode                         : Lossy
  43. Stream size                              : 760 MiB (7%)
  44. Language                                 : English
  45. Service kind                             : Complete Main
  46. Default                                  : Yes
  47. Forced                                   : No
  48. Audio #2
  49. ID                                       : 3
  50. Format                                   : AC-3
  51. Format/Info                              : Audio Coding 3
  52. Commercial name                          : Dolby Digital
  53. Codec ID                                 : A_AC3
  54. Duration                                 : 2 h 46 min
  55. Bit rate mode                            : Constant
  56. Bit rate                                 : 448 kb/s
  57. Channel(s)                               : 2 channels
  58. Channel layout                           : L R
  59. Sampling rate                            : 48.0 kHz
  60. Frame rate                               : 31.250 FPS (1536 SPF)
  61. Compression mode                         : Lossy
  62. Stream size                              : 532 MiB (5%)
  63. Language                                 : Chinese
  64. Service kind                             : Complete Main
  65. Default                                  : No
  66. Forced                                   : No
  67. Text #1
  68. ID                                       : 4
  69. Format                                   : PGS
  70. Muxing mode                              : zlib
  71. Codec ID                                 : S_HDMV/PGS
  72. Codec ID/Info                            : Picture based subtitle format used on BDs/HD-DVDs
  73. Language                                 : English
  74. Default                                  : Yes
  75. Forced                                   : No
  76. Text #2
  77. ID                                       : 5
  78. Format                                   : PGS
  79. Muxing mode                              : zlib
  80. Codec ID                                 : S_HDMV/PGS
  81. Codec ID/Info                            : Picture based subtitle format used on BDs/HD-DVDs
  82. Language                                 : English
  83. Default                                  : No
  84. Forced                                   : No
  85. Text #3
  86. ID                                       : 6
  87. Format                                   : PGS
  88. Muxing mode                              : zlib
  89. Codec ID                                 : S_HDMV/PGS
  90. Codec ID/Info                            : Picture based subtitle format used on BDs/HD-DVDs
  91. Language                                 : Chinese
  92. Default                                  : No
  93. Forced                                   : No
  94. Text #4
  95. ID                                       : 7
  96. Format                                   : PGS
  97. Muxing mode                              : zlib
  98. Codec ID                                 : S_HDMV/PGS
  99. Codec ID/Info                            : Picture based subtitle format used on BDs/HD-DVDs
  100. Language                                 : Chinese
  101. Default                                  : No
  102. Forced                                   : No
  103. Text #5
  104. ID                                       : 8
  105. Format                                   : PGS
  106. Muxing mode                              : zlib
  107. Codec ID                                 : S_HDMV/PGS
  108. Codec ID/Info                            : Picture based subtitle format used on BDs/HD-DVDs
  109. Language                                 : Chinese
  110. Default                                  : No
  111. Forced                                   : No
  112. Menu
  113. 00:00:00.000                             : en:Chapter 01
  114. 00:10:24.415                             : en:Chapter 02
  115. 00:15:12.077                             : en:Chapter 03
  116. 00:20:40.030                             : en:Chapter 04
  117. 00:24:39.311                             : en:Chapter 05
  118. 00:33:13.032                             : en:Chapter 06
  119. 00:42:40.849                             : en:Chapter 07
  120. 00:46:48.347                             : en:Chapter 08
  121. 00:54:12.332                             : en:Chapter 09
  122. 00:56:51.407                             : en:Chapter 10
  123. 00:59:00.870                             : en:Chapter 11
  124. 01:06:53.050                             : en:Chapter 12
  125. 01:12:20.461                             : en:Chapter 13
  126. 01:20:02.797                             : en:Chapter 14
  127. 01:23:05.313                             : en:Chapter 15
  128. 01:29:33.618                             : en:Chapter 16
  129. 01:35:21.257                             : en:Chapter 17
  130. 01:38:48.047                             : en:Chapter 18
  131. 01:43:13.812                             : en:Chapter 19
  132. 01:48:07.606                             : en:Chapter 20
  133. 01:50:37.881                             : en:Chapter 21
  134. 01:55:01.185                             : en:Chapter 22
  135. 01:58:54.335                             : en:Chapter 23
  136. 02:04:41.223                             : en:Chapter 24
  137. 02:10:41.667                             : en:Chapter 25
  138. 02:15:36.253                             : en:Chapter 26
  139. 02:23:07.662                             : en:Chapter 27
  140. 02:26:03.588                             : en:Chapter 28
  141. 02:29:33.964                             : en:Chapter 29
  142. 02:32:00.444                             : en:Chapter 30
  143. 02:37:29.690                             : en:Chapter 31
  144. 02:41:31.056                             : en:Chapter 32
  145. 02:44:04.584                             : en:Chapter 33





此处一般会放置磁力链或种子下载链接,不过此链接需要注册会员才能看到,点击“立即注册”
磁力链下载【下载链接仅对注册会员开放,登陆后可见】
BT9527电影天堂 1、BT9527电影天堂提供的BT文件均来源于互联网抓取,只供网友学习交流、技术提升使用。
2、我们遵守BitTorrent点对点协议原则,任何版权问题请联系原资源发布商,我们不处理任何版权纠纷,谢谢!如有争议请联系邮箱:BT9527#hotmail.com(#换成@)
3、如果您发现某页面或地址有错误,请联系站长邮箱BT9527#hotmail.com(#换成@),我们会尽快处理。您的热心是对BT9527电影天堂最大的支持。
4、本站建议去正规影院观看电影以支持电影行业发展。
最新回复 (0)

你可以在 登录 or 注册 后,对此帖发表评论!

返回