虎口脱险[国语音轨/中英字幕].La.Grande.Vadrouille.1966.BluRay.1080p.x265.10bit.3Audio-MiniHD 10.66GB

版主小s 3月前 154

✔资源类型:暂未分类   ✔电影年份:更 早   ✔电影地区:其他   ✔电影分类:喜剧

◎译  名 虎口脱险 / 横冲直撞出重围(港) / 大進擊(台) / Don't Look Now... We're Being Shot At!
◎片  名 La grande vadrouille
◎年  代 1966
◎产  地 法国 / 英国
◎类  别 喜剧 / 战争
◎语  言 法语 / 英语 / 德语
◎上映日期 1966-12-08(法国)
◎IMDb链接 https://www.imdb.com/title/tt0060474/
◎豆瓣评分 8.9/10 (229944人评价)
◎豆瓣链接 https://movie.douban.com/subject/1296909/
◎片  长 132分钟
◎导  演 热拉尔·乌里 Gérard Oury (id:1048409)
◎编  剧 热拉尔·乌里 Gérard Oury (id:1048409)
       达妮埃尔·汤普森 Danièle Thompson (id:1014376)
       马塞尔·朱利安 Marcel Jullian (id:1008535)
       乔治·塔贝 Georges Tabet (id:1008713)
       安德烈·塔贝 André Tabet (id:1364972)
◎演  员 路易·德·菲奈斯 Louis de Funès (id:1025291)
       布尔维尔 Bourvil (id:1022984)
       克劳迪奥·布鲁克 Claudio Brook (id:1076587)
       安德丽·帕里西 Andréa Parisy (id:1037652)
       科莱特·布罗塞 Colette Brosset (id:1033499)
       迈克·马歇尔 Mike Marshall (id:1123754)
       玛丽·马凯 Mary Marquet (id:1120981)
       皮埃尔·贝尔坦 Pierre Bertin (id:1063328)
       本诺·施特岑巴赫 Benno Sterzenbach (id:1153631)
       玛丽·杜布瓦 Marie Dubois (id:1016809)
       特里-托马斯 Terry-Thomas (id:1156580)
       西戈德·拉普 Sieghardt Rupp (id:1145059)
       赖因哈德·科尔德霍夫 Reinhard Kolldehoff (id:1108403)
       赫尔穆特·施奈德 Helmuth Schneider (id:1038099)
       保罗·普雷博伊斯特 Paul Préboist (id:1132900)
       汉斯·迈尔 Hans Meyer (id:1115981)
       居伊·格罗索 Guy Grosso (id:1099882)
       米歇尔·莫多 Michel Modo (id:1001022)
       彼得·雅各布 Peter Jacob (id:1364973)
       吕迪·勒努瓦 Rudy Lenoir (id:1124250)
       诺埃尔·达扎尔 No?l Darzal (id:1087420)
       皮埃尔·鲁塞尔 Pierre Roussel (id:1364974)
       皮埃尔·巴斯蒂安 Pierre Bastien (id:1065548)
       雅克·萨布隆 Jacques Sablon (id:1364975)
       玛格·阿夫里尔 Mag-Avril (id:1121561)
       雅克·博杜因 Jacques Bodoin (id:1061286)
       加布里埃尔·戈班 Gabriel Gobin (id:1096301)
       保罗·梅塞 Paul Mercey (id:1115316)
       亨利·热内斯 Henri Génès (id:1100966)
       童自荣 Zirong Tong (id:1318216)
       严崇德 Chongde Yan (id:1417707)
       于鼎 Ding Yu (id:1331562)
       尚华 Hua Shang (id:1326253)
       乔治·奥里克 Georges Auric (id:1008156)
       阿尔贝·于尔根松 Albert Jurgenson (id:1287971)
       泰奥巴尔特·默里斯 Théobald Meurisse (id:1291935)
       热拉尔·介朗 Gérard Guérin (id:1285719)
       陈叙一 Xuyi Chen (id:1384136)

◎简  介
  二战期间,英国一架飞机在执行轰炸任务中,被德军击中,几名英国士兵被迫跳伞逃生。他们约好在土耳其浴室见面,并用这次行动的代号“鸳鸯茶”作为接头暗号。                                    
                                他们分别降落在法国巴黎德军占领区的不同地点。大胡子中队长雷金纳德被动物园管理员所救。而另外两名士兵,也分别在油漆匠奥古斯德 (布尔维尔 饰)和乐队指挥斯塔尼斯拉斯(路易·德·费内斯 饰)的帮助下掩藏好了。即便德军展开了全城的搜索,油漆匠、指挥和中队长还是在浴室顺利地会面,几经辗转,英国士兵终于接上了头。几个原本并不认识的人,就这样结成了生死同盟,与敌人展开了斗智斗勇的生死游戏。同时,也闹出了不少温情的笑话。他们用微薄的力量对抗严酷德军,险相迭生,滑稽搞笑,为了逃出虎口,共同战斗。
  1. ##### MediaInfo ######
  2. General
  3. Unique ID                                : 178589442019659347116883620224859002359 (0x865B134E500D3D18959D76557A4255F7)
  4. Complete name                            : La.Grande.Vadrouille.1966.BluRay.1080p.x265.10bit.3Audio-MiniHD.mkv
  5. Format                                   : Matroska
  6. Format version                           : Version 4
  7. File size                                : 10.7 GiB
  8. Duration                                 : 2 h 4 min
  9. Overall bit rate                         : 12.3 Mb/s
  10. Encoded date                             : UTC 2017-07-25 10:05:39
  11. Writing application                      : mkvmerge v11.0.0 ('Alive') 64bit
  12. Writing library                          : libebml v1.3.4 + libmatroska v1.4.5
  13. Video
  14. ID                                       : 1
  15. Format                                   : HEVC
  16. Format/Info                              : High Efficiency Video Coding
  17. Codec ID                                 : V_MPEGH/ISO/HEVC
  18. Duration                                 : 2 h 4 min
  19. Bit rate                                 : 10.4 Mb/s
  20. Width                                    : 1 920 pixels
  21. Height                                   : 768 pixels
  22. Display aspect ratio                     : 2.500
  23. Frame rate mode                          : Constant
  24. Frame rate                               : 24.000 FPS
  25. Bits/(Pixel*Frame)                       : 0.293
  26. Stream size                              : 9.00 GiB (84%)
  27. Default                                  : Yes
  28. Forced                                   : No
  29. Audio #1
  30. ID                                       : 2
  31. Format                                   : AC-3
  32. Format/Info                              : Audio Coding 3
  33. Commercial name                          : Dolby Digital
  34. Codec ID                                 : A_AC3
  35. Duration                                 : 2 h 4 min
  36. Bit rate mode                            : Constant
  37. Bit rate                                 : 640 kb/s
  38. Channel(s)                               : 3 channels
  39. Channel layout                           : L R C
  40. Sampling rate                            : 48.0 kHz
  41. Frame rate                               : 31.250 FPS (1536 SPF)
  42. Compression mode                         : Lossy
  43. Stream size                              : 569 MiB (5%)
  44. Language                                 : French
  45. Service kind                             : Complete Main
  46. Default                                  : Yes
  47. Forced                                   : No
  48. Audio #2
  49. ID                                       : 3
  50. Format                                   : AC-3
  51. Format/Info                              : Audio Coding 3
  52. Commercial name                          : Dolby Digital
  53. Codec ID                                 : A_AC3
  54. Duration                                 : 2 h 4 min
  55. Bit rate mode                            : Constant
  56. Bit rate                                 : 640 kb/s
  57. Channel(s)                               : 3 channels
  58. Channel layout                           : L R C
  59. Sampling rate                            : 48.0 kHz
  60. Frame rate                               : 31.250 FPS (1536 SPF)
  61. Compression mode                         : Lossy
  62. Stream size                              : 569 MiB (5%)
  63. Language                                 : Chinese
  64. Service kind                             : Complete Main
  65. Default                                  : No
  66. Forced                                   : No
  67. Audio #3
  68. ID                                       : 4
  69. Format                                   : AC-3
  70. Format/Info                              : Audio Coding 3
  71. Commercial name                          : Dolby Digital
  72. Codec ID                                 : A_AC3
  73. Duration                                 : 2 h 4 min
  74. Bit rate mode                            : Constant
  75. Bit rate                                 : 384 kb/s
  76. Channel(s)                               : 6 channels
  77. Channel layout                           : L R C LFE Ls Rs
  78. Sampling rate                            : 48.0 kHz
  79. Frame rate                               : 31.250 FPS (1536 SPF)
  80. Compression mode                         : Lossy
  81. Stream size                              : 342 MiB (3%)
  82. Language                                 : Chinese
  83. Service kind                             : Complete Main
  84. Default                                  : No
  85. Forced                                   : No
  86. Text #1
  87. ID                                       : 5
  88. Format                                   : PGS
  89. Muxing mode                              : zlib
  90. Codec ID                                 : S_HDMV/PGS
  91. Codec ID/Info                            : Picture based subtitle format used on BDs/HD-DVDs
  92. Language                                 : English
  93. Default                                  : Yes
  94. Forced                                   : No
  95. Text #2
  96. ID                                       : 6
  97. Format                                   : PGS
  98. Muxing mode                              : zlib
  99. Codec ID                                 : S_HDMV/PGS
  100. Codec ID/Info                            : Picture based subtitle format used on BDs/HD-DVDs
  101. Language                                 : French
  102. Default                                  : No
  103. Forced                                   : No
  104. Text #3
  105. ID                                       : 7
  106. Format                                   : PGS
  107. Muxing mode                              : zlib
  108. Codec ID                                 : S_HDMV/PGS
  109. Codec ID/Info                            : Picture based subtitle format used on BDs/HD-DVDs
  110. Language                                 : Chinese
  111. Default                                  : No
  112. Forced                                   : No
  113. Text #4
  114. ID                                       : 8
  115. Format                                   : PGS
  116. Muxing mode                              : zlib
  117. Codec ID                                 : S_HDMV/PGS
  118. Codec ID/Info                            : Picture based subtitle format used on BDs/HD-DVDs
  119. Language                                 : Chinese
  120. Default                                  : No
  121. Forced                                   : No
  122. Menu
  123. 00:00:00.000                             : en:Chapter 01
  124. 00:10:25.000                             : en:Chapter 02
  125. 00:20:03.208                             : en:Chapter 03
  126. 00:31:49.833                             : en:Chapter 04
  127. 00:40:11.583                             : en:Chapter 05
  128. 00:50:46.166                             : en:Chapter 06
  129. 00:59:48.958                             : en:Chapter 07
  130. 01:10:54.875                             : en:Chapter 08
  131. 01:20:26.958                             : en:Chapter 09
  132. 01:30:56.916                             : en:Chapter 10
  133. 01:40:02.375                             : en:Chapter 11
  134. 01:51:08.083                             : en:Chapter 12





此处一般会放置磁力链或种子下载链接,不过此链接需要注册会员才能看到,点击“立即注册”
磁力链下载【下载链接仅对注册会员开放,登陆后可见】
BT9527电影天堂 1、BT9527电影天堂提供的BT文件均来源于互联网抓取,只供网友学习交流、技术提升使用。
2、我们遵守BitTorrent点对点协议原则,任何版权问题请联系原资源发布商,我们不处理任何版权纠纷,谢谢!如有争议请联系邮箱:BT9527#hotmail.com(#换成@)
3、如果您发现某页面或地址有错误,请联系站长邮箱BT9527#hotmail.com(#换成@),我们会尽快处理。您的热心是对BT9527电影天堂最大的支持。
4、本站建议去正规影院观看电影以支持电影行业发展。
最新回复 (0)

你可以在 登录 or 注册 后,对此帖发表评论!

返回
发新帖