第一滴血5:最后的血[简繁字幕].Rambo.Last.Blood.2019.EXTENDED.BluRay.2160p.x265.HDR-MiniHD 20.54GB

版主小s 20天前 41

✔资源类型:BD-4K   ✔电影年份:2019   ✔电影地区:欧美   ✔电影分类:动作

◎译  名 第一滴血5:最后的血 / 第一滴血:终极血战(港) / 蓝波:最后一滴血(台) / 第一滴血5 / 兰博5:最后一滴血 / 第一滴血:最后一战 / Rambo V / Rambo 5 / Rambo 5: Last Blood / Rambo V: Last Blood
◎片  名 Rambo: Last Blood
◎年  代 2019
◎产  地 美国 / 西班牙 / 保加利亚
◎类  别 动作 / 惊悚 / 冒险
◎语  言 英语 / 西班牙语
◎上映日期 2019-09-18(印度尼西亚) / 2019-09-20(美国) / 2019-09-27(西班牙)
◎IMDb链接 https://www.imdb.com/title/tt1206885/
◎豆瓣评分 7.6/10 (46128人评价)
◎豆瓣链接 https://movie.douban.com/subject/10546436/
◎片  长 89分钟
◎导  演 阿德里安·格鲁伯格 Adrian Grunberg (id:1319574)
◎编  剧 马修·西鲁尼克 Matthew Cirulnick (id:1388926)
       西尔维斯特·史泰龙 Sylvester Stallone (id:1047996)
       丹·戈登 Dan Gordon (id:1285176)
       大卫·莫瑞尔 David Morrell (id:1045577)
◎演  员 西尔维斯特·史泰龙 Sylvester Stallone (id:1047996)
       帕斯·贝加 Paz Vega (id:1025136)
       塞尔吉奥·佩里斯-门切塔 Sergio Peris-Mencheta (id:1133455)
       艾德里安娜·巴拉扎 Adriana Barraza (id:1032220)
       维特·蒙雷尔 Yvette Monreal (id:1344628)
       吉妮·金 Genie Kim (id:1427389)
       华金·科西奥 Joaquín Cosio (id:1306249)
       帕斯卡西奥·洛佩斯 Pascacio López (id:1358168)
       奥斯卡·贾恩那达 óscar Jaenada (id:1044925)
       亚历山大·迪米特罗夫 Alexander Dimitrov (id:1427390)
       亚伦·科恩 Aaron Cohen (id:1032928)
       尼克·威特曼 Nick Wittman (id:1415466)
       杰西卡·马德森 Jessica Madsen (id:1383901)
       路易·曼迪勒 Louis Mandylor (id:1049820)
       欧文·戴维斯 Owen Davis (id:1427391)
       阿塔纳斯·斯雷布雷夫 Atanas Srebrev (id:1195460)
       乔治·曼切夫 Georgi Manchev (id:1251715)
       菲妮莎·皮内达 Fenessa Pineda (id:1430813)
       布莱恩·泰勒 Brian Tyler (id:1276412)
       布伦丹·加尔文 Brendan Galvin (id:1284454)

◎简  介
  西尔维斯特·史泰龙回归[第一滴血5],并有望执导。除主演外,据悉史泰龙将操刀剧本,故事围绕兰博为营救朋友之女与墨西哥毒枭展开殊死搏斗展开。制片艾威·勒纳([敢死队]系列)。该系列首部于1982年上映,2008年史泰龙曾自导自演[第一滴血4]。[第一滴血5]将在本届戛纳电影节预售,9月开拍。

◎获奖情况 (共8项)
  第40届金酸莓奖 (2020)
  最差影片(提名)
  最差男主角(提名)
   └──西尔维斯特·史泰龙 (id:1047996)
  最差女配角(提名)
   └──菲妮莎·皮内达 (id:1430813)
  最差导演(提名)
   └──阿德里安·格鲁伯格 (id:1319574)
  最差剧本(提名)
  最差银幕组合(提名)
   └──西尔维斯特·史泰龙 (id:1047996)
  最差前传、重拍、恶搞及续集电影
  最罔顾人类生活和公共财产电影

  1. ##### MediaInfo ######
  2. General
  3. Unique ID                                : 264915755953153697942711987590991300797 (0xC74CEB30C6B61051A68FD997CA1DC8BD)
  4. Complete name                            : Rambo.Last.Blood.2019.EXTENDED.BluRay.2160p.x265.HDR-MiniHD.mkv
  5. Format                                   : Matroska
  6. Format version                           : Version 4
  7. File size                                : 20.5 GiB
  8. Duration                                 : 1 h 41 min
  9. Overall bit rate mode                    : Variable
  10. Overall bit rate                         : 29.1 Mb/s
  11. Encoded date                             : UTC 2020-02-15 12:42:33
  12. Writing application                      : mkvmerge v43.0.0 ('The Quartermaster') 64-bit
  13. Writing library                          : libebml v1.3.10 + libmatroska v1.5.2
  14. Video
  15. ID                                       : 1
  16. Format                                   : HEVC
  17. Format/Info                              : High Efficiency Video Coding
  18. Format profile                           : Main 10@L5.1@High
  19. HDR format                               : SMPTE ST 2086, HDR10 compatible
  20. Codec ID                                 : V_MPEGH/ISO/HEVC
  21. Duration                                 : 1 h 41 min
  22. Bit rate                                 : 24.9 Mb/s
  23. Width                                    : 3 840 pixels
  24. Height                                   : 1 612 pixels
  25. Display aspect ratio                     : 2.40:1
  26. Frame rate mode                          : Constant
  27. Frame rate                               : 23.976 (24000/1001/53354) FPS
  28. Color space                              : YUV
  29. Chroma subsampling                       : 4:2:0
  30. Bit depth                                : 10 bits
  31. Bits/(Pixel*Frame)                       : 0.168
  32. Stream size                              : 17.6 GiB (86%)
  33. Title                                    : mUHD
  34. Writing library                          : x265 3.2+7-gb291a1c95+26:[Windows][MSVC 1916][64 bit] Yuuki 10bit
  35. Encoding settings                        : rc=crf / crf=17.0000 / qcomp=0.70 / qpstep=4 / stats-write=0 / stats-read=0 / vbv-maxrate=160000 / vbv-bufsize=160000 / vbv-init=0.9 / crf-max=0.0 / crf-min=0.0 / no-lossless / no-cu-lossless / aq-mode=3 / aq-strength=0.85 / cbqpoffs=-3 / crqpoffs=-3 / ipratio=1.40 / pbratio=1.20 / psy-rd=0.00 / psy-rdoq=8.00 / deblock=-1:-1 / ref=4 / limit-refs=2 / limit-modes / bframes=8 / b-adapt=2 / bframe-bias=0 / b-pyramid / b-intra / weightp / weightb / min-keyint=1 / max-keyint=360 / rc-lookahead=40 / gop-lookahead=0 / NTMzNTQ=uuDQuD2mJt9fsCf / scenecut=40 / radl=0 / max-cu-size=32 / min-cu-size=8 / me=3 / subme=4 / merange=25 / rdoq-level=2 / rd=4 / rdpenalty=1 / dynamic-rd=0.00 / no-rd-refine / ----- / cutree / no-sao / no-rect / no-amp / no-open-gop / wpp / no-pmode / no-pme / no-psnr / no-ssim / nr-intra=0 / nr-inter=0 / no-constrained-intra / no-strong-intra-smoothing / max-tu-size=32 / tu-inter-depth=2 / tu-intra-depth=2 / limit-tu=3 / qg-size=32 / qpmax=69 / qpmin=0 / ----- / cpuid=533541111039 / frame-threads=4 / numa-pools=24 / log-level=2 / input-csp=1 / input-res=3840x1612 / interlace=0 / level-idc=51 / high-tier=1 / uhd-bd=0 / no-allow-non-conformance / repeat-headers / aud / hrd / info / hash=0 / no-temporal-layers / lookahead-slices=0 / no-splice / no-intra-refresh / ssim-rd / signhide / no-tskip / max-merge=4 / temporal-mvp / no-hme / no-analyze-src-pics / no-sao-non-deblock / selective-sao=0 / no-early-skip / no-rskip / no-fast-intra / no-tskip-fast / no-splitrd-skip / zone-count=0 / no-strict-cbr / no-rc-grain / no-const-vbv / sar=0 / overscan=0 / videoformat=5 / range=0 / colorprim=9 / transfer=16 / colormatrix=9 / chromaloc=0 / display-window=0 / master-display=G(13250,34500)B(7500,3000)R(34000,16000)WP(15635,16450)L(40000000,1) / cll=1082,715 / min-luma=0 / max-luma=1023 / log2-max-poc-lsb=8 / vui-timing-info / vui-hrd-info / slices=1 / no-opt-qp-pps / no-opt-ref-list-length-pps / no-multi-pass-opt-rps / scenecut-bias=0.05 / no-opt-cu-delta-qp / no-aq-motion / hdr / hdr-opt / no-dhdr10-opt / no-idr-recovery-sei / analysis-reuse-level=5 / scale-factor=0 / refine-intra=0 / refine-inter=0 / refine-mv=1 / refine-ctu-distortion=0 / no-limit-sao / ctu-info=0 / no-lowpass-dct / refine-analysis-type=0 / copy-pic=1 / max-ausize-factor=1.0 / no-dynamic-refine / no-single-sei / no-hevc-aq / no-svt / no-field / qp-adaptation-range=1.00
  36. Language                                 : English
  37. Default                                  : Yes
  38. Forced                                   : No
  39. Color range                              : Limited
  40. Color primaries                          : BT.2020
  41. Transfer characteristics                 : PQ
  42. Matrix coefficients                      : BT.2020 non-constant
  43. Mastering display color primaries        : Display P3
  44. Mastering display luminance              : min: 0.0001 cd/m2, max: 4000 cd/m2
  45. Maximum Content Light Level              : 1082 cd/m2
  46. Maximum Frame-Average Light Level        : 715 cd/m2
  47. Audio
  48. ID                                       : 2
  49. Format                                   : DTS XLL
  50. Format/Info                              : Digital Theater Systems
  51. Commercial name                          : DTS-HD Master Audio
  52. Codec ID                                 : A_DTS
  53. Duration                                 : 1 h 41 min
  54. Bit rate mode                            : Variable
  55. Bit rate                                 : 4 118 kb/s
  56. Channel(s)                               : 6 channels
  57. Channel layout                           : C L R Ls Rs LFE
  58. Sampling rate                            : 48.0 kHz
  59. Frame rate                               : 93.750 FPS (512 SPF)
  60. Bit depth                                : 24 bits
  61. Compression mode                         : Lossless
  62. Stream size                              : 2.91 GiB (14%)
  63. Title                                    : English DTS-HD MA@5.1
  64. Language                                 : English
  65. Default                                  : Yes
  66. Forced                                   : No
  67. Text #1
  68. ID                                       : 3
  69. Format                                   : PGS
  70. Muxing mode                              : zlib
  71. Codec ID                                 : S_HDMV/PGS
  72. Codec ID/Info                            : Picture based subtitle format used on BDs/HD-DVDs
  73. Duration                                 : 1 h 30 min
  74. Bit rate                                 : 16.2 kb/s
  75. Count of elements                        : 1669
  76. Stream size                              : 10.5 MiB (0%)
  77. Title                                    : 简体中文
  78. Language                                 : Chinese
  79. Default                                  : Yes
  80. Forced                                   : No
  81. Text #2
  82. ID                                       : 4
  83. Format                                   : PGS
  84. Muxing mode                              : zlib
  85. Codec ID                                 : S_HDMV/PGS
  86. Codec ID/Info                            : Picture based subtitle format used on BDs/HD-DVDs
  87. Duration                                 : 1 h 30 min
  88. Bit rate                                 : 16.5 kb/s
  89. Count of elements                        : 1669
  90. Stream size                              : 10.7 MiB (0%)
  91. Title                                    : 繁体中文
  92. Language                                 : Chinese
  93. Default                                  : No
  94. Forced                                   : No
  95. Text #3
  96. ID                                       : 5
  97. Format                                   : PGS
  98. Muxing mode                              : zlib
  99. Codec ID                                 : S_HDMV/PGS
  100. Codec ID/Info                            : Picture based subtitle format used on BDs/HD-DVDs
  101. Duration                                 : 1 h 30 min
  102. Bit rate                                 : 28.8 kb/s
  103. Count of elements                        : 1460
  104. Stream size                              : 18.7 MiB (0%)
  105. Title                                    : 简英双语
  106. Language                                 : Chinese
  107. Default                                  : No
  108. Forced                                   : No
  109. Text #4
  110. ID                                       : 6
  111. Format                                   : PGS
  112. Muxing mode                              : zlib
  113. Codec ID                                 : S_HDMV/PGS
  114. Codec ID/Info                            : Picture based subtitle format used on BDs/HD-DVDs
  115. Duration                                 : 1 h 30 min
  116. Bit rate                                 : 29.2 kb/s
  117. Count of elements                        : 1460
  118. Stream size                              : 19.0 MiB (0%)
  119. Title                                    : 繁英双语
  120. Language                                 : Chinese
  121. Default                                  : No
  122. Forced                                   : No
  123. Menu
  124. 00:00:00.000                             : en:第 01 章
  125. 00:00:34.034                             : en:第 02 章
  126. 00:09:00.331                             : en:第 03 章
  127. 00:14:06.220                             : en:第 04 章
  128. 00:21:25.284                             : en:第 05 章
  129. 00:30:14.687                             : en:第 06 章
  130. 00:39:00.921                             : en:第 07 章
  131. 00:50:23.562                             : en:第 08 章
  132. 00:57:17.892                             : en:第 09 章
  133. 01:08:19.637                             : en:第 10 章
  134. 01:16:51.106                             : en:第 11 章
  135. 01:24:49.375                             : en:第 12 章
  136. 01:30:42.770                             : en:第 13 章





此处一般会放置磁力链或种子下载链接,不过此链接需要注册会员才能看到,点击“立即注册”
磁力链下载【下载链接仅对注册会员开放,登陆后可见】
BT9527电影天堂 1、BT9527电影天堂提供的BT文件均来源于互联网抓取,只供网友学习交流、技术提升使用。
2、我们遵守BitTorrent点对点协议原则,任何版权问题请联系原资源发布商,我们不处理任何版权纠纷,谢谢!如有争议请联系邮箱:BT9527#hotmail.com(#换成@)
3、如果您发现某页面或地址有错误,请联系站长邮箱BT9527#hotmail.com(#换成@),我们会尽快处理。您的热心是对BT9527电影天堂最大的支持。
4、本站建议去正规影院观看电影以支持电影行业发展。
最新回复 (0)

你可以在 登录 or 注册 后,对此帖发表评论!

返回
发新帖