第一滴血4[简英字幕].Rambo.2008.EXTENDED.2160p.BluRay.x265.HDR-MiniHD 20.47GB

版主小s 3月前 206

✔资源类型:BD-4K   ✔电影年份:2008   ✔电影地区:欧美   ✔电影分类:动作

◎译  名 第一滴血4 / 第四滴血 / 兰博4 / RAMBO 热血回归 / Rambo IV / John Rambo / Rambo The Fight Continues
◎片  名 Rambo
◎年  代 2008
◎产  地 美国 / 德国
◎类  别 动作 / 惊悚
◎语  言 英语 / 缅甸语 / 泰语
◎上映日期 2008-01-25(美国)
◎IMDb链接 https://www.imdb.com/title/tt0462499/
◎豆瓣评分 7.5/10 (47282人评价)
◎豆瓣链接 https://movie.douban.com/subject/1440855/
◎片  长 92分钟
◎导  演 西尔维斯特·史泰龙 Sylvester Stallone (id:1047996)
◎编  剧 亚特·蒙特拉斯特里 Art Monterastelli (id:1042061)
       西尔维斯特·史泰龙 Sylvester Stallone (id:1047996)
       大卫·莫瑞尔 David Morrell (id:1045577)
◎演  员 西尔维斯特·史泰龙 Sylvester Stallone (id:1047996)
       朱莉·本茨 Julie Benz (id:1044710)
       马修·马斯登 Matthew Marsden (id:1031949)
       詹姆斯·维斯 James With (id:1005388)
       格拉汉姆·麦克泰维什 Graham McTavish (id:1323191)
       保罗·舒尔茨 Paul Schulze (id:1320838)
       蒂姆·康 Tim Kang (id:1032012)
       马修·沃尔夫 Matthew Wolf (id:1161921)
       Supakorn Kitsuwon Supakorn Kitsuwon (id:1288658)
       肯·霍华德 Ken Howard (id:1096159)
       大卫·莫瑞尔 David Morrell (id:1045577)
       乔恩·费勒梅 Jon Feltheimer (id:1050954)
       兰道尔·艾米特 Randall Emmett (id:1000666)
       博兹·大卫逊 Boaz Davidson (id:1040974)
       约翰·汤普森 John Thompson (id:1299184)
       鲍伯·韦恩斯坦 Bob Weinstein (id:1300654)
       艾威·勒纳 Avi Lerner (id:1027972)
       克里斯托弗·佩泽尔 Christopher Petzel (id:1023789)
       哈维·韦恩斯坦 Harvey Weinstein (id:1054304)
       布莱恩·泰勒 Brian Tyler (id:1276412)
       杰瑞·高德史密斯 Jerry Goldsmith (id:1007116)
       格伦·麦克弗森 Glen MacPherson (id:1041789)
       Sean Albertson Sean Albertson (id:1042410)
       希拉·贾菲 Sheila Jaffe (id:1287540)
       弗朗哥·贾科莫·卡本 Franco-Giacomo Carbone (id:1280068)
       利兹·沃尔夫 Lizz Wolf (id:1466605)
       Scott H. Eddo Scott H. Eddo (id:1089511)
       格兰特·麦丘恩 Grant McCune (id:1291510)
       Bill Taylor Bill Taylor (id:1298968)
        Migs Rustia (id:1230977)
       Shero Rauf Shero Rauf (id:1212441)
       丹尼·S·金 Danny S. Kim (id:1288541)
       萨里特·沃林 Sumrit Warin (id:1374656)

◎简  介
  军政府统治下的缅甸,其西部由于蕴含丰富资源而被军队觊觎多年,那里的儿童经常被军队强征入伍,针对平民的屠杀已经成了部分军人的娱乐……一支教会义工小队为了进入该地区向难民提供人道主义帮助,在泰国找到了隐居的兰博(西尔维斯特?史泰龙 Sylvester Stallone 饰),希望熟悉河道的后者提供帮助。兰博认为时局没有改变的可能,拒绝带路,但终被义工莎拉(Julie Benz 饰)的诚意打动,将他们送达。                                    
                                岂料这支义工小队在村庄中遭到军队的袭击,生还者全部被掳走。教会获悉义工们身陷险境,组织雇佣兵营救,并再次委托兰博带路,这一次,兰博的态度发生了转变,他率领雇佣兵们潜入缅甸军营,又一次化身热血战士。
  1. ##### MediaInfo ######
  2. General
  3. Unique ID                                : 227722484726036035257454536996660176211 (0xAB51C1570AE3F9E9B44C1DCF8E77E553)
  4. Complete name                            : Rambo.2008.EXTENDED.2160p.BluRay.x265.HDR-MiniHD.mkv
  5. Format                                   : Matroska
  6. Format version                           : Version 4
  7. File size                                : 20.5 GiB
  8. Duration                                 : 1 h 39 min
  9. Overall bit rate mode                    : Variable
  10. Overall bit rate                         : 29.5 Mb/s
  11. Movie name                               : Rambo.2008.EXTENDED.2160p.BluRay.REMUX.HEVC.DTS-HD.MA.TrueHD.7.1.Atmos-FGT
  12. Encoded date                             : UTC 2020-02-15 04:19:21
  13. Writing application                      : mkvmerge v43.0.0 ('The Quartermaster') 64-bit
  14. Writing library                          : libebml v1.3.10 + libmatroska v1.5.2
  15. Cover                                    : Yes
  16. Attachments                              : cover.jpg
  17. Video
  18. ID                                       : 1
  19. Format                                   : HEVC
  20. Format/Info                              : High Efficiency Video Coding
  21. Format profile                           : Main 10@L5.1@High
  22. HDR format                               : SMPTE ST 2086, HDR10 compatible
  23. Codec ID                                 : V_MPEGH/ISO/HEVC
  24. Duration                                 : 1 h 39 min
  25. Bit rate                                 : 23.1 Mb/s
  26. Width                                    : 3 840 pixels
  27. Height                                   : 1 636 pixels
  28. Display aspect ratio                     : 2.35:1
  29. Frame rate mode                          : Constant
  30. Frame rate                               : 23.976 (24000/1001/53354) FPS
  31. Color space                              : YUV
  32. Chroma subsampling                       : 4:2:0
  33. Bit depth                                : 10 bits
  34. Bits/(Pixel*Frame)                       : 0.153
  35. Stream size                              : 16.0 GiB (78%)
  36. Writing library                          : x265 3.2+7-gb291a1c95+26:[Windows][MSVC 1916][64 bit] Yuuki 10bit
  37. Encoding settings                        : rc=crf / crf=18.0000 / qcomp=0.70 / qpstep=4 / stats-write=0 / stats-read=0 / vbv-maxrate=160000 / vbv-bufsize=160000 / vbv-init=0.9 / crf-max=0.0 / crf-min=0.0 / no-lossless / no-cu-lossless / aq-mode=3 / aq-strength=0.85 / cbqpoffs=-3 / crqpoffs=-3 / ipratio=1.40 / pbratio=1.20 / psy-rd=0.00 / psy-rdoq=8.00 / deblock=-1:-1 / ref=4 / limit-refs=2 / limit-modes / bframes=8 / b-adapt=2 / bframe-bias=0 / b-pyramid / b-intra / weightp / weightb / min-keyint=1 / max-keyint=360 / rc-lookahead=40 / gop-lookahead=0 / NTMzNTQ=uuDQuD2mJt9fsCf / scenecut=40 / radl=0 / max-cu-size=32 / min-cu-size=8 / me=3 / subme=4 / merange=25 / rdoq-level=2 / rd=4 / rdpenalty=1 / dynamic-rd=0.00 / no-rd-refine / ----- / cutree / no-sao / no-rect / no-amp / no-open-gop / wpp / no-pmode / no-pme / no-psnr / no-ssim / nr-intra=0 / nr-inter=0 / no-constrained-intra / no-strong-intra-smoothing / max-tu-size=32 / tu-inter-depth=2 / tu-intra-depth=2 / limit-tu=3 / qg-size=32 / qpmax=69 / qpmin=0 / ----- / cpuid=533541111039 / frame-threads=4 / numa-pools=24 / log-level=2 / input-csp=1 / input-res=3840x1636 / interlace=0 / level-idc=51 / high-tier=1 / uhd-bd=0 / no-allow-non-conformance / repeat-headers / aud / hrd / info / hash=0 / no-temporal-layers / lookahead-slices=0 / no-splice / no-intra-refresh / ssim-rd / signhide / no-tskip / max-merge=4 / temporal-mvp / no-hme / no-analyze-src-pics / no-sao-non-deblock / selective-sao=0 / no-early-skip / no-rskip / no-fast-intra / no-tskip-fast / no-splitrd-skip / zone-count=0 / no-strict-cbr / no-rc-grain / no-const-vbv / sar=0 / overscan=0 / videoformat=5 / range=0 / colorprim=9 / transfer=16 / colormatrix=9 / chromaloc=0 / display-window=0 / master-display=G(13250,34500)B(7500,3000)R(34000,16000)WP(15635,16450)L(10000000,10) / cll=1000,932 / min-luma=0 / max-luma=1023 / log2-max-poc-lsb=8 / vui-timing-info / vui-hrd-info / slices=1 / no-opt-qp-pps / no-opt-ref-list-length-pps / no-multi-pass-opt-rps / scenecut-bias=0.05 / no-opt-cu-delta-qp / no-aq-motion / hdr / hdr-opt / no-dhdr10-opt / no-idr-recovery-sei / analysis-reuse-level=5 / scale-factor=0 / refine-intra=0 / refine-inter=0 / refine-mv=1 / refine-ctu-distortion=0 / no-limit-sao / ctu-info=0 / no-lowpass-dct / refine-analysis-type=0 / copy-pic=1 / max-ausize-factor=1.0 / no-dynamic-refine / no-single-sei / no-hevc-aq / no-svt / no-field / qp-adaptation-range=1.00
  38. Language                                 : English
  39. Default                                  : Yes
  40. Forced                                   : No
  41. Color range                              : Limited
  42. Color primaries                          : BT.2020
  43. Transfer characteristics                 : PQ
  44. Matrix coefficients                      : BT.2020 non-constant
  45. Mastering display color primaries        : Display P3
  46. Mastering display luminance              : min: 0.0010 cd/m2, max: 1000 cd/m2
  47. Maximum Content Light Level              : 1000 cd/m2
  48. Maximum Frame-Average Light Level        : 932 cd/m2
  49. Audio #1
  50. ID                                       : 2
  51. Format                                   : MLP FBA 16-ch
  52. Format/Info                              : Meridian Lossless Packing FBA with 16-channel presentation
  53. Commercial name                          : Dolby TrueHD with Dolby Atmos
  54. Codec ID                                 : A_TRUEHD
  55. Duration                                 : 1 h 39 min
  56. Bit rate mode                            : Variable
  57. Bit rate                                 : 5 671 kb/s
  58. Maximum bit rate                         : 8 955 kb/s
  59. Channel(s)                               : 8 channels
  60. Channel layout                           : L R C LFE Ls Rs Lb Rb
  61. Sampling rate                            : 48.0 kHz
  62. Frame rate                               : 1 200.000 FPS (40 SPF)
  63. Compression mode                         : Lossless
  64. Stream size                              : 3.93 GiB (19%)
  65. Title                                    : Rambo.2008.EXTENDED.2160p.BluRay.REMUX.HEVC.DTS-HD.MA.TrueHD.7.1.Atmos-FGT
  66. Language                                 : English
  67. Default                                  : Yes
  68. Forced                                   : No
  69. Number of dynamic objects                : 15
  70. Bed channel count                        : 1 channel
  71. Bed channel configuration                : LFE
  72. Audio #2
  73. ID                                       : 3
  74. Format                                   : AC-3
  75. Format/Info                              : Audio Coding 3
  76. Commercial name                          : Dolby Digital
  77. Codec ID                                 : A_AC3
  78. Duration                                 : 1 h 39 min
  79. Bit rate mode                            : Constant
  80. Bit rate                                 : 640 kb/s
  81. Channel(s)                               : 6 channels
  82. Channel layout                           : L R C LFE Ls Rs
  83. Sampling rate                            : 48.0 kHz
  84. Frame rate                               : 31.250 FPS (1536 SPF)
  85. Compression mode                         : Lossy
  86. Stream size                              : 454 MiB (2%)
  87. Title                                    : Rambo.2008.EXTENDED.2160p.BluRay.REMUX.HEVC.DTS-HD.MA.TrueHD.7.1.Atmos-FGT
  88. Language                                 : English
  89. Service kind                             : Complete Main
  90. Default                                  : No
  91. Forced                                   : No
  92. Text #1
  93. ID                                       : 4
  94. Format                                   : PGS
  95. Muxing mode                              : zlib
  96. Codec ID                                 : S_HDMV/PGS
  97. Codec ID/Info                            : Picture based subtitle format used on BDs/HD-DVDs
  98. Duration                                 : 1 h 25 min
  99. Bit rate                                 : 19.1 kb/s
  100. Count of elements                        : 1124
  101. Stream size                              : 11.7 MiB (0%)
  102. Title                                    : English-PGS
  103. Language                                 : English
  104. Default                                  : No
  105. Forced                                   : No
  106. Text #2
  107. ID                                       : 5
  108. Format                                   : PGS
  109. Muxing mode                              : zlib
  110. Codec ID                                 : S_HDMV/PGS
  111. Codec ID/Info                            : Picture based subtitle format used on BDs/HD-DVDs
  112. Duration                                 : 1 h 27 min
  113. Bit rate                                 : 19.4 kb/s
  114. Count of elements                        : 1199
  115. Stream size                              : 12.1 MiB (0%)
  116. Title                                    : 简体中文
  117. Language                                 : Chinese
  118. Default                                  : Yes
  119. Forced                                   : No
  120. Text #3
  121. ID                                       : 6
  122. Format                                   : PGS
  123. Muxing mode                              : zlib
  124. Codec ID                                 : S_HDMV/PGS
  125. Codec ID/Info                            : Picture based subtitle format used on BDs/HD-DVDs
  126. Duration                                 : 1 h 27 min
  127. Bit rate                                 : 26.4 kb/s
  128. Count of elements                        : 1200
  129. Stream size                              : 16.5 MiB (0%)
  130. Title                                    : 简体&英文
  131. Language                                 : Chinese
  132. Default                                  : No
  133. Forced                                   : No
  134. Text #4
  135. ID                                       : 7
  136. Format                                   : PGS
  137. Muxing mode                              : zlib
  138. Codec ID                                 : S_HDMV/PGS
  139. Codec ID/Info                            : Picture based subtitle format used on BDs/HD-DVDs
  140. Duration                                 : 1 h 25 min
  141. Bit rate                                 : 19.3 kb/s
  142. Count of elements                        : 1320
  143. Stream size                              : 11.8 MiB (0%)
  144. Title                                    : Spanish-PGS
  145. Language                                 : Spanish
  146. Default                                  : No
  147. Forced                                   : No
  148. Menu
  149. 00:00:00.000                             : en:Chapter 01
  150. 00:06:04.197                             : en:Chapter 02
  151. 00:11:33.359                             : en:Chapter 03
  152. 00:22:41.735                             : en:Chapter 04
  153. 00:28:31.543                             : en:Chapter 05
  154. 00:33:17.662                             : en:Chapter 06
  155. 00:42:31.966                             : en:Chapter 07
  156. 00:47:26.134                             : en:Chapter 08
  157. 00:52:06.790                             : en:Chapter 09
  158. 00:59:18.012                             : en:Chapter 10
  159. 01:03:30.848                             : en:Chapter 11
  160. 01:08:02.953                             : en:Chapter 12
  161. 01:13:43.460                             : en:Chapter 13
  162. 01:19:02.195                             : en:Chapter 14
  163. 01:24:37.238                             : en:Chapter 15
  164. 01:27:17.523                             : en:Chapter 16



此处一般会放置磁力链或种子下载链接,不过此链接需要注册会员才能看到,点击“立即注册”
磁力链下载【下载链接仅对注册会员开放,登陆后可见】
BT9527电影天堂 1、BT9527电影天堂提供的BT文件均来源于互联网抓取,只供网友学习交流、技术提升使用。
2、我们遵守BitTorrent点对点协议原则,任何版权问题请联系原资源发布商,我们不处理任何版权纠纷,谢谢!如有争议请联系邮箱:BT9527#hotmail.com(#换成@)
3、如果您发现某页面或地址有错误,请联系站长邮箱BT9527#hotmail.com(#换成@),我们会尽快处理。您的热心是对BT9527电影天堂最大的支持。
4、本站建议去正规影院观看电影以支持电影行业发展。
最新回复 (0)

你可以在 登录 or 注册 后,对此帖发表评论!

返回
发新帖