超体[国英多音轨/简繁英特效字幕].Lucy.2014.BluRay.2160p.x265.10bit.HDR.4Audio-MiniHD 14.48GB

版主小s 20天前 43

✔资源类型:BD-4K   ✔电影年份:2014   ✔电影地区:其他   ✔电影分类:动作

◎译  名 超体 / LUCY:绝路煞姬(港) / 露西(台) / 超能毒贩
◎片  名 Lucy
◎年  代 2014
◎产  地 法国 / 德国 / 中国台湾 / 加拿大 / 美国 / 英国
◎类  别 动作 / 科幻
◎语  言 英语 / 汉语普通话 / 法语 / 意大利语 / 德语 / 西班牙语 / 韩语
◎上映日期 2014-10-24(中国大陆) / 2014-07-25(美国) / 2014-08-06(法国)
◎IMDb链接 https://www.imdb.com/title/tt2872732/
◎豆瓣评分 7.4/10 (523236人评价)
◎豆瓣链接 https://movie.douban.com/subject/24404677/
◎片  长 89分钟
◎导  演 吕克·贝松 Luc Besson (id:1031876)
◎编  剧 吕克·贝松 Luc Besson (id:1031876)
◎演  员 斯嘉丽·约翰逊 Scarlett Johansson (id:1054453)
       摩根·弗里曼 Morgan Freeman (id:1054534)
       崔岷植 Min-sik Choi (id:1045142)
       阿马尔·维克德 Amr Waked (id:1300271)
       朱利安·林希德-图特 Julian Rhind-Tutt (id:1147816)
       皮鲁·埃斯贝克 Pilou Asb?k (id:1032805)
       安娜丽·提普顿 Analeigh Tipton (id:1268721)
       詹·奥利弗·施罗德 Jan Oliver Schroeder (id:1339838)
       弗雷德里克·周 Frédéric Chau (id:1339837)
       克莱尔·陈 Claire Tran (id:1339836)
       塞德里克·舍瓦姆 Cédric Chevalme (id:1339840)
       沃尔夫冈·皮索尔斯 Wolfgang Pissors (id:1352202)
       邵斯凡 Sifan Shao (id:1317143)
       保罗·陈 Paul Chan (id:1339839)
       林暐恒 Ken Lin (id:1326912)
       邢峰 Feng Hsing (id:1359741)
       徐灏翔 Hao-Hsiang Hsu (id:1363607)
       塞缪尔·丘林 Samuel Churin (id:1385677)
       李淳 Mason Lee (id:1316450)
       吕克·贝松 Luc Besson (id:1031876)
       高靖榕 Sharon Kao (id:1334550)
       克里斯多夫·泰克 Christophe Tek (id:1339842)
       林辰唏 Zaizai Lin (id:1275283)
       伊冯娜·格雷迪莱 Yvonne Gradelet (id:1327962)
       Michèle Raingeval Michèle Raingeval (id:1339841)
       艾瑞克·塞拉 Eric Serra (id:1050343)
       蒂埃里·阿博加斯特 Thierry Arbogast (id:1276547)
       奥利维耶·贝里奥 Olivier Bériot (id:1279801)
       高靖榕 Sharon Kao (id:1334550)

◎简  介
  被恶德男友强迫帮人送货的年轻女子露西(斯嘉丽·约翰逊 Scarlett Johansson 饰),遭遇了穷凶恶极的黑帮头目张先生(崔岷植 饰)一伙。她连同三个男人被张先生在腹部缝入了代号为CPH4的神秘药品,以此将药品偷偷带入不同国家。在台北盘桓期间,露西遭到恶男暴打,以致药品破裂进入血液之中。谁知令人难以置信的事情就此发生,药品激发了露西大脑的潜力,令人脑中约90%的神经元相继苏醒。伴随着身体的飞快进化,露西掌握了越来越多人们所谓的超能力。她清楚地了解到CPH4所拥有的强大威力,于是想方设法要阻止其他三袋药品落入张先生一伙手中。                                    
                                期间她试图与大脑研究方面的资深教授塞缪尔·诺曼(摩根·弗里曼 Morgan Freeman 饰)取得联系,在后者的见证下,露西将迎来大脑100%苏醒的历史性时刻……

◎获奖情况 (共1项)
  第1届豆瓣电影年度榜单 (2014)
  11月最受关注电影(提名)

  1. ##### MediaInfo ######
  2. General
  3. Unique ID                                : 241531137639773999214743605732856471801 (0xB5B5347E0A89E54AA2E4728794D2A0F9)
  4. Complete name                            : Lucy.2014.BluRay.2160p.x265.10bit.HDR.4Audio-MiniHD.mkv
  5. Format                                   : Matroska
  6. Format version                           : Version 4
  7. File size                                : 14.5 GiB
  8. Duration                                 : 1 h 29 min
  9. Overall bit rate mode                    : Variable
  10. Overall bit rate                         : 23.2 Mb/s
  11. Movie name                               : Lucy 4K
  12. Encoded date                             : UTC 2017-11-20 11:36:54
  13. Writing application                      : mkvmerge v17.0.0 ('Be Ur Friend') 64-bit
  14. Writing library                          : libebml v1.3.5 + libmatroska v1.4.8
  15. Video
  16. ID                                       : 1
  17. Format                                   : HEVC
  18. Format/Info                              : High Efficiency Video Coding
  19. Format profile                           : Main 10@L5.1@High
  20. HDR format                               : SMPTE ST 2086, HDR10 compatible
  21. Codec ID                                 : V_MPEGH/ISO/HEVC
  22. Duration                                 : 1 h 29 min
  23. Bit rate                                 : 14.3 Mb/s
  24. Width                                    : 3 840 pixels
  25. Height                                   : 1 600 pixels
  26. Display aspect ratio                     : 2.40:1
  27. Frame rate mode                          : Constant
  28. Frame rate                               : 23.976 (24000/1001/53354) FPS
  29. Color space                              : YUV
  30. Chroma subsampling                       : 4:2:0 (Type 2)
  31. Bit depth                                : 10 bits
  32. Bits/(Pixel*Frame)                       : 0.097
  33. Stream size                              : 8.91 GiB (62%)
  34. Writing library                          : x265 2.5+47-6a882a9300c2:[Windows][GCC 7.2.0][64 bit] 10bit
  35. Encoding settings                        : cpuid=533541173503 / frame-threads=5 / numa-pools=36 / wpp / no-pmode / no-pme / no-psnr / no-ssim / log-level=2 / input-csp=1 / input-res=3840x1600 / interlace=0 / total-frames=0 / level-idc=51 / high-tier=1 / uhd-bd=0 / ref=5 / no-allow-non-conformance / repeat-headers / annexb / aud / hrd / info / hash=0 / no-temporal-layers / no-open-gop / min-keyint=1 / keyint=360 / bframes=9 / b-adapt=2 / b-pyramid / bframe-bias=0 / rc-lookahead=60 / lookahead-slices=4 / NTMzNTQ=uuDQuD2mJt9fsCf / scenecut=40 / no-intra-refresh / ctu=32 / min-cu-size=8 / no-rect / no-amp / max-tu-size=32 / tu-inter-depth=2 / tu-intra-depth=2 / limit-tu=4 / rdoq-level=1 / dynamic-rd=0.00 / ssim-rd / signhide / no-tskip / nr-intra=0 / nr-inter=0 / no-constrained-intra / no-strong-intra-smoothing / max-merge=3 / limit-refs=2 / limit-modes / me=3 / subme=5 / merange=25 / temporal-mvp / weightp / weightb / no-analyze-src-pics / deblock=-1:-1 / no-sao / no-sao-non-deblock / rd=4 / no-early-skip / no-rskip / no-fast-intra / no-tskip-fast / no-cu-lossless / b-intra / no-splitrd-skip / rdpenalty=1 / psy-rd=0.00 / psy-rdoq=5.00 / no-rd-refine / analysis-reuse-mode=0 / no-lossless / cbqpoffs=-3 / crqpoffs=-3 / rc=crf / crf=17.0 / qcomp=0.70 / qpstep=4 / stats-write=0 / stats-read=0 / vbv-maxrate=100000 / vbv-bufsize=100000 / vbv-init=0.9 / crf-max=0.0 / crf-min=0.0 / ipratio=1.40 / pbratio=1.20 / aq-mode=3 / aq-strength=0.80 / cutree / zone-count=0 / no-strict-cbr / qg-size=32 / no-rc-grain / qpmax=69 / qpmin=0 / no-const-vbv / sar=1 / overscan=0 / videoformat=5 / range=0 / colorprim=9 / transfer=16 / colormatrix=9 / chromaloc=1 / chromaloc-top=2 / chromaloc-bottom=2 / display-window=0 / master-display=G(13250,34500)B(7500,3000)R(34000,16000)WP(15635,16450)L(10000000,50) / max-cll=1000,400 / min-luma=0 / max-luma=1023 / log2-max-poc-lsb=8 / vui-timing-info / vui-hrd-info / slices=1 / opt-qp-pps / opt-ref-list-length-pps / no-multi-pass-opt-rps / scenecut-bias=0.05 / no-opt-cu-delta-qp / no-aq-motion / hdr / hdr-opt / no-dhdr10-opt / analysis-reuse-level=5 / scale-factor=0 / refine-intra=0 / refine-inter=0 / refine-mv=0 / no-limit-sao / ctu-info=0 / no-lowpass-dct / refine-mv-type=0
  36. Default                                  : Yes
  37. Forced                                   : No
  38. Color range                              : Limited
  39. Color primaries                          : BT.2020
  40. Transfer characteristics                 : PQ
  41. Matrix coefficients                      : BT.2020 non-constant
  42. Mastering display color primaries        : Display P3
  43. Mastering display luminance              : min: 0.0050 cd/m2, max: 1000 cd/m2
  44. Maximum Content Light Level              : 1000 cd/m2
  45. Maximum Frame-Average Light Level        : 400 cd/m2
  46. Audio #1
  47. ID                                       : 2
  48. Format                                   : MLP FBA 16-ch
  49. Format/Info                              : Meridian Lossless Packing FBA with 16-channel presentation
  50. Commercial name                          : Dolby TrueHD with Dolby Atmos
  51. Codec ID                                 : A_TRUEHD
  52. Duration                                 : 1 h 29 min
  53. Bit rate mode                            : Variable
  54. Bit rate                                 : 5 206 kb/s
  55. Maximum bit rate                         : 8 685 kb/s
  56. Channel(s)                               : 8 channels
  57. Channel layout                           : L R C LFE Ls Rs Lb Rb
  58. Sampling rate                            : 48.0 kHz
  59. Frame rate                               : 1 200.000 FPS (40 SPF)
  60. Compression mode                         : Lossless
  61. Stream size                              : 3.25 GiB (22%)
  62. Title                                    : 英语全景声
  63. Language                                 : English
  64. Default                                  : Yes
  65. Forced                                   : No
  66. Number of dynamic objects                : 11
  67. Bed channel count                        : 1 channel
  68. Bed channel configuration                : LFE
  69. Audio #2
  70. ID                                       : 3
  71. Format                                   : AC-3
  72. Format/Info                              : Audio Coding 3
  73. Commercial name                          : Dolby Digital
  74. Codec ID                                 : A_AC3
  75. Duration                                 : 1 h 29 min
  76. Bit rate mode                            : Constant
  77. Bit rate                                 : 640 kb/s
  78. Channel(s)                               : 6 channels
  79. Channel layout                           : L R C LFE Ls Rs
  80. Sampling rate                            : 48.0 kHz
  81. Frame rate                               : 31.250 FPS (1536 SPF)
  82. Compression mode                         : Lossy
  83. Stream size                              : 410 MiB (3%)
  84. Title                                    : 英语
  85. Language                                 : English
  86. Service kind                             : Complete Main
  87. Default                                  : No
  88. Forced                                   : No
  89. Audio #3
  90. ID                                       : 4
  91. Format                                   : DTS XLL
  92. Format/Info                              : Digital Theater Systems
  93. Commercial name                          : DTS-HD Master Audio
  94. Codec ID                                 : A_DTS
  95. Duration                                 : 1 h 29 min
  96. Bit rate mode                            : Variable
  97. Bit rate                                 : 2 198 kb/s
  98. Channel(s)                               : 6 channels
  99. Channel layout                           : C L R Ls Rs LFE
  100. Sampling rate                            : 48.0 kHz
  101. Frame rate                               : 93.750 FPS (512 SPF)
  102. Bit depth                                : 16 bits
  103. Compression mode                         : Lossless
  104. Stream size                              : 1.37 GiB (9%)
  105. Title                                    : 国语DTSHD
  106. Language                                 : Chinese
  107. Default                                  : No
  108. Forced                                   : No
  109. Audio #4
  110. ID                                       : 5
  111. Format                                   : AC-3
  112. Format/Info                              : Audio Coding 3
  113. Commercial name                          : Dolby Digital
  114. Codec ID                                 : A_AC3
  115. Duration                                 : 1 h 29 min
  116. Bit rate mode                            : Constant
  117. Bit rate                                 : 640 kb/s
  118. Channel(s)                               : 6 channels
  119. Channel layout                           : L R C LFE Ls Rs
  120. Sampling rate                            : 48.0 kHz
  121. Frame rate                               : 31.250 FPS (1536 SPF)
  122. Compression mode                         : Lossy
  123. Stream size                              : 409 MiB (3%)
  124. Title                                    : 国语
  125. Language                                 : Chinese
  126. Service kind                             : Complete Main
  127. Default                                  : No
  128. Forced                                   : No
  129. Text #1
  130. ID                                       : 6
  131. Format                                   : PGS
  132. Muxing mode                              : zlib
  133. Codec ID                                 : S_HDMV/PGS
  134. Codec ID/Info                            : Picture based subtitle format used on BDs/HD-DVDs
  135. Duration                                 : 1 h 20 min
  136. Bit rate                                 : 30.1 kb/s
  137. Count of elements                        : 1910
  138. Stream size                              : 17.4 MiB (0%)
  139. Title                                    : 英文
  140. Language                                 : English
  141. Default                                  : Yes
  142. Forced                                   : No
  143. Text #2
  144. ID                                       : 7
  145. Format                                   : PGS
  146. Muxing mode                              : zlib
  147. Codec ID                                 : S_HDMV/PGS
  148. Codec ID/Info                            : Picture based subtitle format used on BDs/HD-DVDs
  149. Duration                                 : 1 h 25 min
  150. Bit rate                                 : 40.1 kb/s
  151. Count of elements                        : 2544
  152. Stream size                              : 24.5 MiB (0%)
  153. Title                                    : 国配简体特效
  154. Language                                 : Chinese
  155. Default                                  : No
  156. Forced                                   : No
  157. Text #3
  158. ID                                       : 8
  159. Format                                   : PGS
  160. Muxing mode                              : zlib
  161. Codec ID                                 : S_HDMV/PGS
  162. Codec ID/Info                            : Picture based subtitle format used on BDs/HD-DVDs
  163. Duration                                 : 1 h 25 min
  164. Bit rate                                 : 41.1 kb/s
  165. Count of elements                        : 2481
  166. Stream size                              : 25.1 MiB (0%)
  167. Title                                    : R3繁体特效
  168. Language                                 : Chinese
  169. Default                                  : No
  170. Forced                                   : No
  171. Text #4
  172. ID                                       : 9
  173. Format                                   : PGS
  174. Muxing mode                              : zlib
  175. Codec ID                                 : S_HDMV/PGS
  176. Codec ID/Info                            : Picture based subtitle format used on BDs/HD-DVDs
  177. Duration                                 : 1 h 25 min
  178. Bit rate                                 : 88.4 kb/s
  179. Count of elements                        : 2481
  180. Stream size                              : 54.1 MiB (0%)
  181. Title                                    : 简英特效
  182. Language                                 : Chinese
  183. Default                                  : No
  184. Forced                                   : No
  185. Text #5
  186. ID                                       : 10
  187. Format                                   : PGS
  188. Muxing mode                              : zlib
  189. Codec ID                                 : S_HDMV/PGS
  190. Codec ID/Info                            : Picture based subtitle format used on BDs/HD-DVDs
  191. Duration                                 : 1 h 25 min
  192. Bit rate                                 : 89.4 kb/s
  193. Count of elements                        : 2481
  194. Stream size                              : 54.6 MiB (0%)
  195. Title                                    : 繁英特效
  196. Language                                 : Chinese
  197. Default                                  : No
  198. Forced                                   : No
  199. Text #6
  200. ID                                       : 11
  201. Format                                   : PGS
  202. Muxing mode                              : zlib
  203. Codec ID                                 : S_HDMV/PGS
  204. Codec ID/Info                            : Picture based subtitle format used on BDs/HD-DVDs
  205. Duration                                 : 1 h 20 min
  206. Bit rate                                 : 20.2 kb/s
  207. Count of elements                        : 1616
  208. Stream size                              : 11.7 MiB (0%)
  209. Title                                    : 原盘繁体-TW
  210. Language                                 : Chinese
  211. Default                                  : No
  212. Forced                                   : No
  213. Menu
  214. 00:00:00.000                             : en:Chapter 01
  215. 00:05:26.368                             : en:Chapter 02
  216. 00:08:38.268                             : en:Chapter 03
  217. 00:15:45.570                             : en:Chapter 04
  218. 00:21:36.295                             : en:Chapter 05
  219. 00:26:05.397                             : en:Chapter 06
  220. 00:30:27.534                             : en:Chapter 07
  221. 00:37:36.254                             : en:Chapter 08
  222. 00:41:43.459                             : en:Chapter 09
  223. 00:47:32.558                             : en:Chapter 10
  224. 00:50:10.716                             : en:Chapter 11
  225. 00:55:32.496                             : en:Chapter 12
  226. 00:59:36.072                             : en:Chapter 13
  227. 01:02:08.099                             : en:Chapter 14
  228. 01:04:51.346                             : en:Chapter 15
  229. 01:07:14.030                             : en:Chapter 16
  230. 01:09:55.817                             : en:Chapter 17
  231. 01:12:26.133                             : en:Chapter 18
  232. 01:18:50.601                             : en:Chapter 19
  233. 01:22:31.572                             : en:Chapter 20





此处一般会放置磁力链或种子下载链接,不过此链接需要注册会员才能看到,点击“立即注册”
磁力链下载【下载链接仅对注册会员开放,登陆后可见】
BT9527电影天堂 1、BT9527电影天堂提供的BT文件均来源于互联网抓取,只供网友学习交流、技术提升使用。
2、我们遵守BitTorrent点对点协议原则,任何版权问题请联系原资源发布商,我们不处理任何版权纠纷,谢谢!如有争议请联系邮箱:BT9527#hotmail.com(#换成@)
3、如果您发现某页面或地址有错误,请联系站长邮箱BT9527#hotmail.com(#换成@),我们会尽快处理。您的热心是对BT9527电影天堂最大的支持。
4、本站建议去正规影院观看电影以支持电影行业发展。
最新回复 (0)

你可以在 登录 or 注册 后,对此帖发表评论!

返回
发新帖