第一滴血3[国英多音轨/简英特效字幕].Rambo.III.1988.BluRay.2160p.x265.10bit.HDR.2Audio-MiniHD 18.28GB

版主小s 17天前 27

✔资源类型:BD-4K   ✔电影年份:更 早   ✔电影地区:欧美   ✔电影分类:动作

◎译  名 第一滴血3 / 兰博3
◎片  名 Rambo III
◎年  代 1988
◎产  地 美国
◎类  别 动作 / 冒险
◎语  言 英语 / 俄语
◎上映日期 1988-05-25(美国)
◎IMDb链接 https://www.imdb.com/title/tt0095956/
◎豆瓣评分 7.6/10 (38578人评价)
◎豆瓣链接 https://movie.douban.com/subject/1300399/
◎片  长 102 分钟
◎导  演 彼得·麦克唐纳德 Peter MacDonald (id:1276344)
◎编  剧 大卫·莫瑞尔 David Morrell (id:1045577)
       西尔维斯特·史泰龙 Sylvester Stallone (id:1047996)
       谢尔登 莱提奇 Sheldon Lettich (id:1014453)
◎演  员 西尔维斯特·史泰龙 Sylvester Stallone (id:1047996)
       理查德·克里纳 Richard Crenna (id:1036515)
       马克德容 Marc de Jonge (id:1084540)
       柯特伍德·史密斯 Kurtwood Smith (id:1010600)
       塞森·加布埃 Sasson Gabai (id:1284365)
       阿隆·阿布布尔 Alon Aboutboul (id:1054904)
       Paul Dion Monte Paul Dion Monte (id:1122344)
       Doudi Shoua Doudi Shoua (id:1297518)
       约瑟夫·希洛赫 Joseph Shiloach (id:1297464)
        R.T. Freeman (id:1252147)
       安德鲁·G·瓦吉纳 Andrew G. Vajna (id:1023242)
       巴茨·费特香斯 Buzz Feitshans (id:1283529)
       马里奥·凯萨 Mario Kassar (id:1028144)
       杰瑞·高德史密斯 Jerry Goldsmith (id:1007116)
       Edward Warschilka Edward Warschilka (id:1034487)
       O. Nicholas Brown O. Nicholas Brown (id:1020141)
       Pier Luigi Basile Pier Luigi Basile (id:1278043)
       本哈明·费勒南戴斯 Benjamín Fernández (id:1283598)
       Adrian Gorton Adrian Gorton (id:1285219)
       Richard La Motte Richard La Motte (id:1289182)
       Donna Barrett Gilbert Donna Barrett Gilbert (id:1099208)
       Jeff Goodwin Jeff Goodwin (id:1099950)
       詹内托·德·罗西 Giannetto De Rossi (id:1023792)
       Nikolas Korda Nikolas Korda (id:1276458)
       Dennis Maguire Dennis Maguire (id:1290727)
       恩斯特·戴 Ernest Day (id:1001401)
       David Stump David Stump (id:1276361)
       约翰·科茨 John Coats (id:1280929)
       Tim Donahue Tim Donahue (id:1282562)
       Joel Fletcher Joel Fletcher (id:1283856)
       威廉·梅萨 William Mesa (id:1291905)
       Jon Macht Jon Macht (id:1215180)
       黄家达 Carter Wong (id:1002865)

◎简  介
  历经无数战火与生死考验,孔武有力的豪情勇士约翰·兰博(西尔维斯特·史泰龙 Sylvester Stallone 饰)放下手中的杀人武器,在泰国过起了平静的修行生活。这一日,特劳特曼上校(理查德·克里纳 Richard Crenna饰)突然出现在他面前。此前不久,上校受命率部队前往阿富汗,协助当地的圣战勇士反抗苏联人的入侵。虽然照片中阿富汗平民饱受外敌侵略和蹂躏的情景触目惊心,但兰博还是拒绝了上校的邀请。某晚,特劳特曼的部队在执行任务途中遭到苏联军队的伏击,其本人也不幸沦为阶下囚。得知这一消息,兰博再也无法静观其变。浴血战士重披战甲,只身闯入充满凶险的阿富汗腹地,展开一场紧张纷呈的绝命营救……                                    
                                本片获1989年金酸梅最差男主角奖。
  1. ##### MediaInfo ######
  2. General
  3. Unique ID                                : 65611516327047042521658777445922684556 (0x315C51829A53BFC558396E32DA06BE8C)
  4. Complete name                            : Rambo.III.1988.BluRay.2160p.x265.10bit.HDR.2Audio-MiniHD.mkv
  5. Format                                   : Matroska
  6. Format version                           : Version 4
  7. File size                                : 18.3 GiB
  8. Duration                                 : 1 h 41 min
  9. Overall bit rate mode                    : Variable
  10. Overall bit rate                         : 25.8 Mb/s
  11. Encoded date                             : UTC 2018-12-21 02:44:10
  12. Writing application                      : mkvmerge v20.0.0 ('I Am The Sun') 64-bit
  13. Writing library                          : libebml v1.3.5 + libmatroska v1.4.8
  14. Video
  15. ID                                       : 1
  16. Format                                   : HEVC
  17. Format/Info                              : High Efficiency Video Coding
  18. Format profile                           : Main 10@L5.1@High
  19. HDR format                               : SMPTE ST 2086, HDR10 compatible
  20. Codec ID                                 : V_MPEGH/ISO/HEVC
  21. Duration                                 : 1 h 41 min
  22. Bit rate                                 : 19.4 Mb/s
  23. Width                                    : 3 840 pixels
  24. Height                                   : 1 632 pixels
  25. Display aspect ratio                     : 2.35:1
  26. Frame rate mode                          : Constant
  27. Frame rate                               : 24.000 FPS
  28. Color space                              : YUV
  29. Chroma subsampling                       : 4:2:0
  30. Bit depth                                : 10 bits
  31. Bits/(Pixel*Frame)                       : 0.129
  32. Stream size                              : 13.7 GiB (75%)
  33. Writing library                          : x265 2.8+4-g0ad419482+18:[Windows][GCC 7.1.0][64 bit] Yuuki 10bit
  34. Encoding settings                        : rc=crf / crf=19.5000 / qcomp=0.70 / qpstep=4 / vbv-maxrate=160000 / vbv-bufsize=160000 / vbv-init=0.9 / crf-max=0.0 / crf-min=0.0 / aq-mode=3 / aq-strength=0.80 / cbqpoffs=-3 / crqpoffs=-3 / ipratio=1.40 / pbratio=1.20 / psy-rd=2.00 / psy-rdoq=5.00 / deblock=-1:-1 / ref=5 / bframes=9 / b-adapt=2 / bframe-bias=0 / b-pyramid / b-intra / weightp / weightb / min-keyint=24 / max-keyint=300 / rc-lookahead=40 / gop-lookahead=0 / NTMzNTQ=uuDQuD2mJt9fsCf / scenecut=40 / radl=0 / max-cu-size=32 / min-cu-size=8 / me=3 / subme=4 / merange=25 / rdoq-level=2 / rd=4 / rdpenalty=1 / ----- / cutree / no-sao / no-rect / no-amp / no-open-gop / wpp / no-pmode / no-pme / no-psnr / no-ssim / nr-intra=0 / nr-inter=0 / no-constrained-intra / no-strong-intra-smoothing / max-tu-size=32 / tu-inter-depth=2 / tu-intra-depth=2 / limit-tu=4 / qg-size=32 / qpmax=69 / qpmin=0 / ----- / cpuid=533541111039 / frame-threads=5 / numa-pools=84,- / log-level=2 / input-csp=1 / input-res=3840x1632 / interlace=0 / level-idc=0 / high-tier=1 / uhd-bd=0 / no-allow-non-conformance / no-repeat-headers / no-aud / hrd / info / hash=0 / no-temporal-layers / lookahead-slices=4 / no-intra-refresh / dynamic-rd=0.00 / no-ssim-rd / signhide / no-tskip / max-merge=3 / limit-refs=2 / limit-modes / temporal-mvp / no-analyze-src-pics / no-sao-non-deblock / no-early-skip / no-rskip / no-fast-intra / no-tskip-fast / no-cu-lossless / no-splitrd-skip / no-rd-refine / no-lossless / zone-count=0 / no-strict-cbr / no-rc-grain / no-const-vbv / sar=0 / overscan=0 / videoformat=5 / range=0 / colorprim=9 / transfer=16 / colormatrix=9 / chromaloc=0 / display-window=0 / master-display=G(13250,34500)B(7500,3000)R(34000,16000)WP(15635,16450)L(10000000,50) / max-cll=479,468 / min-luma=0 / max-luma=1023 / log2-max-poc-lsb=8 / vui-timing-info / vui-hrd-info / slices=1 / no-opt-qp-pps / no-opt-ref-list-length-pps / no-multi-pass-opt-rps / scenecut-bias=0.05 / no-opt-cu-delta-qp / no-aq-motion / hdr / hdr-opt / no-dhdr10-opt / no-idr-recovery-sei / analysis-reuse-level=5 / scale-factor=0 / refine-intra=0 / refine-inter=0 / refine-mv=0 / no-limit-sao / ctu-info=0 / no-lowpass-dct / refine-mv-type=0 / copy-pic=1 / max-ausize-factor=1.0 / no-dynamic-refine / no-single-sei
  35. Default                                  : Yes
  36. Forced                                   : No
  37. Color range                              : Limited
  38. Color primaries                          : BT.2020
  39. Transfer characteristics                 : PQ
  40. Matrix coefficients                      : BT.2020 non-constant
  41. Mastering display color primaries        : Display P3
  42. Mastering display luminance              : min: 0.0050 cd/m2, max: 1000 cd/m2
  43. Maximum Content Light Level              : 479 cd/m2
  44. Maximum Frame-Average Light Level        : 468 cd/m2
  45. Audio #1
  46. ID                                       : 2
  47. Format                                   : DTS XLL
  48. Format/Info                              : Digital Theater Systems
  49. Commercial name                          : DTS-HD Master Audio
  50. Codec ID                                 : A_DTS
  51. Duration                                 : 1 h 41 min
  52. Bit rate mode                            : Variable
  53. Bit rate                                 : 4 242 kb/s
  54. Channel(s)                               : 6 channels
  55. Channel layout                           : C L R Ls Rs LFE
  56. Sampling rate                            : 48.0 kHz
  57. Frame rate                               : 93.750 FPS (512 SPF)
  58. Bit depth                                : 24 bits
  59. Compression mode                         : Lossless
  60. Stream size                              : 3.01 GiB (16%)
  61. Title                                    : 英语
  62. Language                                 : English
  63. Default                                  : Yes
  64. Forced                                   : No
  65. Audio #2
  66. ID                                       : 3
  67. Format                                   : DTS XLL
  68. Format/Info                              : Digital Theater Systems
  69. Commercial name                          : DTS-HD Master Audio
  70. Codec ID                                 : A_DTS
  71. Duration                                 : 1 h 41 min
  72. Bit rate mode                            : Variable
  73. Bit rate                                 : 2 129 kb/s
  74. Channel(s)                               : 6 channels
  75. Channel layout                           : C L R Ls Rs LFE
  76. Sampling rate                            : 48.0 kHz
  77. Frame rate                               : 93.750 FPS (512 SPF)
  78. Bit depth                                : 16 bits
  79. Compression mode                         : Lossless
  80. Stream size                              : 1.51 GiB (8%)
  81. Title                                    : 华录国语
  82. Language                                 : Chinese
  83. Default                                  : No
  84. Forced                                   : No
  85. Text #1
  86. ID                                       : 4
  87. Format                                   : PGS
  88. Muxing mode                              : zlib
  89. Codec ID                                 : S_HDMV/PGS
  90. Codec ID/Info                            : Picture based subtitle format used on BDs/HD-DVDs
  91. Duration                                 : 1 h 36 min
  92. Bit rate                                 : 34.9 kb/s
  93. Count of elements                        : 1855
  94. Stream size                              : 24.0 MiB (0%)
  95. Title                                    : 国配特效
  96. Language                                 : Chinese
  97. Default                                  : Yes
  98. Forced                                   : No
  99. Text #2
  100. ID                                       : 5
  101. Format                                   : PGS
  102. Muxing mode                              : zlib
  103. Codec ID                                 : S_HDMV/PGS
  104. Codec ID/Info                            : Picture based subtitle format used on BDs/HD-DVDs
  105. Duration                                 : 1 h 36 min
  106. Bit rate                                 : 9 710 b/s
  107. Count of elements                        : 1354
  108. Stream size                              : 6.68 MiB (0%)
  109. Title                                    : 简体中文
  110. Language                                 : Chinese
  111. Default                                  : No
  112. Forced                                   : No
  113. Text #3
  114. ID                                       : 6
  115. Format                                   : PGS
  116. Muxing mode                              : zlib
  117. Codec ID                                 : S_HDMV/PGS
  118. Codec ID/Info                            : Picture based subtitle format used on BDs/HD-DVDs
  119. Duration                                 : 1 h 40 min
  120. Bit rate                                 : 19.4 kb/s
  121. Count of elements                        : 1520
  122. Stream size                              : 14.0 MiB (0%)
  123. Title                                    : 简英双语
  124. Language                                 : Chinese
  125. Default                                  : No
  126. Forced                                   : No
  127. Text #4
  128. ID                                       : 7
  129. Format                                   : PGS
  130. Muxing mode                              : zlib
  131. Codec ID                                 : S_HDMV/PGS
  132. Codec ID/Info                            : Picture based subtitle format used on BDs/HD-DVDs
  133. Duration                                 : 1 h 30 min
  134. Bit rate                                 : 13.7 kb/s
  135. Count of elements                        : 966
  136. Stream size                              : 8.90 MiB (0%)
  137. Title                                    : 英文
  138. Language                                 : English
  139. Default                                  : No
  140. Forced                                   : No
  141. Menu
  142. 00:00:00.000                             : en:00:00:00.000
  143. 00:07:19.458                             : en:00:07:19.458
  144. 00:14:30.375                             : en:00:14:30.375
  145. 00:25:23.000                             : en:00:25:23.000
  146. 00:30:14.250                             : en:00:30:14.250
  147. 00:36:18.667                             : en:00:36:18.667
  148. 00:48:47.167                             : en:00:48:47.167
  149. 00:58:49.375                             : en:00:58:49.375
  150. 01:09:51.458                             : en:01:09:51.458
  151. 01:17:14.958                             : en:01:17:14.958
  152. 01:26:29.500                             : en:01:26:29.500
  153. 01:34:47.167                             : en:01:34:47.167





此处一般会放置磁力链或种子下载链接,不过此链接需要注册会员才能看到,点击“立即注册”
磁力链下载【下载链接仅对注册会员开放,登陆后可见】
BT9527电影天堂 1、BT9527电影天堂提供的BT文件均来源于互联网抓取,只供网友学习交流、技术提升使用。
2、我们遵守BitTorrent点对点协议原则,任何版权问题请联系原资源发布商,我们不处理任何版权纠纷,谢谢!如有争议请联系邮箱:BT9527#hotmail.com(#换成@)
3、如果您发现某页面或地址有错误,请联系站长邮箱BT9527#hotmail.com(#换成@),我们会尽快处理。您的热心是对BT9527电影天堂最大的支持。
4、本站建议去正规影院观看电影以支持电影行业发展。
最新回复 (0)

你可以在 登录 or 注册 后,对此帖发表评论!

返回
发新帖