第一滴血2[国英多音轨/简英特效字幕].Rambo.First.Blood.Part.II.1985.BluRay.2160p.x265.HDR.3Aduio-MiniHD 17.50GB

版主小s 17天前 30

✔资源类型:BD-4K   ✔电影年份:更 早   ✔电影地区:欧美   ✔电影分类:动作

◎译  名 第一滴血2 / 兰博2
◎片  名 Rambo: First Blood Part II
◎年  代 1985
◎产  地 美国
◎类  别 动作 / 惊悚 / 冒险
◎语  言 英语 / 越南语
◎上映日期 1985-05-22(美国)
◎IMDb链接 https://www.imdb.com/title/tt0089880/
◎豆瓣评分 7.8/10 (46586人评价)
◎豆瓣链接 https://movie.douban.com/subject/1300361/
◎片  长 96 分钟
◎导  演 乔治·P·科斯马图斯 George P. Cosmatos (id:1014181)
◎编  剧 西尔维斯特·史泰龙 Sylvester Stallone (id:1047996)
       詹姆斯·卡梅隆 James Cameron (id:1022571)
       大卫·莫瑞尔 David Morrell (id:1045577)
       凯文·贾尔  Kevin Jarre (id:1287611)
◎演  员 西尔维斯特·史泰龙 Sylvester Stallone (id:1047996)
       理查德·克里纳 Richard Crenna (id:1036515)
       史蒂文·伯克夫 Steven Berkoff (id:1025293)
       查尔斯·纳佩尔 Charles Napier (id:1002794)
       朱莉娅·尼克森 Julia Nickson (id:1134173)
       马丁·科夫 Martin Kove (id:1106243)
       William Rothlein William Rothlein (id:1146206)
       巴茨·费特香斯 Buzz Feitshans (id:1283529)
       安德鲁·G·瓦吉纳 Andrew G. Vajna (id:1023242)
       马里奥·凯萨 Mario Kassar (id:1028144)
       杰瑞·高德史密斯 Jerry Goldsmith (id:1007116)
       杰克·卡迪夫 Jack Cardiff (id:1050278)
       马克·海尔弗里奇 Mark Helfrich (id:1286387)
       马克·戈德布拉特 Mark Goldblatt (id:1285044)
       William Ladd Skinner William Ladd Skinner (id:1297738)
       莱昂纳德·恩格尔曼 Leonard Engelman (id:1283204)
       彼得·麦克唐纳德 Peter MacDonald (id:1276344)

◎简  介
  神勇的蓝波(西尔维斯特?史泰龙 Sylvester Stallone 饰)又回来了!这次,蓝波奉命返回越南调查失踪的美军是否已成为战俘。然而,蓝波甫一登陆越南,所有装备和武器都丢失了!随身剩下的,只有一把军刀和一套军用弓箭。                                    
                                身处逆境的蓝波,偶然发现了出卖他的正是自己的部队!蓝波在九死一生之际,得到了当地一名越南少女的帮助。在少女的帮助下,蓝波凭借其高超的求生技能和坚强的意志,克服了一切困难,终于逃出生天。                                    
                                蓝波决定向出卖他的人重拳出击!

◎获奖情况 (共1项)
  第58届奥斯卡金像奖 (1986)
  最佳音效剪辑(提名)
   └──弗雷德·J·布朗 (id:1069699)

  1. ##### MediaInfo ######
  2. General
  3. Unique ID                                : 335605961980288353127361773902691432537 (0xFC7B5B6F72070965634465D42429F859)
  4. Complete name                            : Rambo.First.Blood.Part.II.1985.BluRay.2160p.x265.HDR.3Aduio-MiniHD.mkv
  5. Format                                   : Matroska
  6. Format version                           : Version 4
  7. File size                                : 17.5 GiB
  8. Duration                                 : 1 h 35 min
  9. Overall bit rate mode                    : Variable
  10. Overall bit rate                         : 26.1 Mb/s
  11. Movie name                               : Rambo First Blood Part II 1985 BluRay 2160p - FRDS
  12. Encoded date                             : UTC 2022-01-09 07:55:28
  13. Writing application                      : mkvmerge v63.0.0 ('Everything') 64-bit
  14. Writing library                          : libebml v1.4.2 + libmatroska v1.6.4
  15. Video
  16. ID                                       : 1
  17. Format                                   : HEVC
  18. Format/Info                              : High Efficiency Video Coding
  19. Format profile                           : Main 10@L5.1@High
  20. HDR format                               : SMPTE ST 2086, HDR10 compatible
  21. Codec ID                                 : V_MPEGH/ISO/HEVC
  22. Duration                                 : 1 h 35 min
  23. Bit rate                                 : 19.4 Mb/s
  24. Width                                    : 3 840 pixels
  25. Height                                   : 1 632 pixels
  26. Display aspect ratio                     : 2.35:1
  27. Frame rate mode                          : Constant
  28. Frame rate                               : 24.000 FPS
  29. Color space                              : YUV
  30. Chroma subsampling                       : 4:2:0 (Type 2)
  31. Bit depth                                : 10 bits
  32. Bits/(Pixel*Frame)                       : 0.129
  33. Stream size                              : 13.0 GiB (74%)
  34. Writing library                          : x265 3.5+20-17839cc0d:[Windows][MSVC 1930][64 bit] 10bit
  35. Encoding settings                        : cpuid=533541111039 / frame-threads=5 / numa-pools=20,20 / wpp / pmode / no-pme / no-psnr / no-ssim / log-level=2 / input-csp=1 / input-res=3840x1632 / interlace=0 / total-frames=137992 / level-idc=51 / high-tier=1 / uhd-bd=0 / ref=6 / no-allow-non-conformance / repeat-headers / annexb / aud / no-eob / no-eos / hrd / info / hash=0 / no-temporal-layers / no-open-gop / min-keyint=1 / keyint=250 / gop-lookahead=0 / bframes=8 / b-adapt=2 / b-pyramid / bframe-bias=0 / rc-lookahead=100 / lookahead-slices=0 / NTMzNTQ=uuDQuD2mJt9fsCf / scenecut=40 / no-hist-scenecut / radl=0 / no-splice / no-intra-refresh / ctu=64 / min-cu-size=8 / no-rect / no-amp / max-tu-size=32 / tu-inter-depth=4 / tu-intra-depth=4 / limit-tu=0 / rdoq-level=2 / dynamic-rd=0.00 / no-ssim-rd / signhide / no-tskip / nr-intra=0 / nr-inter=0 / no-constrained-intra / strong-intra-smoothing / max-merge=5 / limit-refs=0 / no-limit-modes / me=3 / subme=7 / merange=57 / temporal-mvp / no-frame-dup / no-hme / weightp / weightb / no-analyze-src-pics / deblock=-3:-3 / no-sao / no-sao-non-deblock / rd=4 / selective-sao=0 / no-early-skip / no-rskip / no-fast-intra / no-tskip-fast / no-cu-lossless / b-intra / no-splitrd-skip / rdpenalty=0 / psy-rd=1.25 / psy-rdoq=1.00 / no-rd-refine / no-lossless / cbqpoffs=0 / crqpoffs=0 / rc=crf / crf=19.0 / qcomp=0.60 / qpstep=4 / stats-write=0 / stats-read=0 / vbv-maxrate=160000 / vbv-bufsize=160000 / vbv-init=0.9 / min-vbv-fullness=50.0 / max-vbv-fullness=80.0 / crf-max=0.0 / crf-min=0.0 / ipratio=1.30 / pbratio=1.20 / aq-mode=1 / aq-strength=1.00 / cutree / zone-count=0 / no-strict-cbr / qg-size=8 / no-rc-grain / qpmax=69 / qpmin=0 / no-const-vbv / sar=0 / overscan=0 / videoformat=5 / range=0 / colorprim=9 / transfer=16 / colormatrix=9 / chromaloc=1 / chromaloc-top=2 / chromaloc-bottom=2 / display-window=0 / master-display=G(13250,34500)B(7500,3000)R(34000,16000)WP(15635,16450)L(10000000,1) / cll=479,464 / min-luma=0 / max-luma=1023 / log2-max-poc-lsb=8 / vui-timing-info / vui-hrd-info / slices=1 / no-opt-qp-pps / no-opt-ref-list-length-pps / no-multi-pass-opt-rps / scenecut-bias=0.05 / hist-threshold=0.03 / no-opt-cu-delta-qp / no-aq-motion / hdr10 / hdr10-opt / no-dhdr10-opt / no-idr-recovery-sei / analysis-reuse-level=0 / analysis-save-reuse-level=0 / analysis-load-reuse-level=0 / scale-factor=0 / refine-intra=0 / refine-inter=0 / refine-mv=1 / refine-ctu-distortion=0 / no-limit-sao / ctu-info=0 / no-lowpass-dct / refine-analysis-type=0 / copy-pic=1 / max-ausize-factor=1.0 / no-dynamic-refine / no-single-sei / no-hevc-aq / no-svt / no-field / qp-adaptation-range=1.00 / scenecut-aware-qp=0conformance-window-offsets / right=0 / bottom=0 / NTMzNTQ= / decoder-max-rate=0 / no-vbv-live-multi-pass
  36. Default                                  : Yes
  37. Forced                                   : No
  38. Color range                              : Limited
  39. Color primaries                          : BT.2020
  40. Transfer characteristics                 : PQ
  41. Matrix coefficients                      : BT.2020 non-constant
  42. Mastering display color primaries        : Display P3
  43. Mastering display luminance              : min: 0.0001 cd/m2, max: 1000 cd/m2
  44. Maximum Content Light Level              : 479 cd/m2
  45. Maximum Frame-Average Light Level        : 464 cd/m2
  46. Audio #1
  47. ID                                       : 2
  48. Format                                   : DTS XLL
  49. Format/Info                              : Digital Theater Systems
  50. Commercial name                          : DTS-HD Master Audio
  51. Codec ID                                 : A_DTS
  52. Duration                                 : 1 h 35 min
  53. Bit rate mode                            : Variable
  54. Bit rate                                 : 4 174 kb/s
  55. Channel(s)                               : 6 channels
  56. Channel layout                           : C L R Ls Rs LFE
  57. Sampling rate                            : 48.0 kHz
  58. Frame rate                               : 93.750 FPS (512 SPF)
  59. Bit depth                                : 24 bits
  60. Compression mode                         : Lossless
  61. Stream size                              : 2.79 GiB (16%)
  62. Language                                 : English
  63. Default                                  : Yes
  64. Forced                                   : No
  65. Audio #2
  66. ID                                       : 3
  67. Format                                   : DTS XLL
  68. Format/Info                              : Digital Theater Systems
  69. Commercial name                          : DTS-HD Master Audio
  70. Codec ID                                 : A_DTS
  71. Duration                                 : 1 h 35 min
  72. Bit rate mode                            : Variable
  73. Bit rate                                 : 2 284 kb/s
  74. Channel(s)                               : 6 channels
  75. Channel layout                           : C L R Ls Rs LFE
  76. Sampling rate                            : 48.0 kHz
  77. Frame rate                               : 93.750 FPS (512 SPF)
  78. Bit depth                                : 16 bits
  79. Compression mode                         : Lossless
  80. Delay relative to video                  : 2 ms
  81. Stream size                              : 1.53 GiB (9%)
  82. Title                                    : 华录国语
  83. Language                                 : Chinese
  84. Default                                  : No
  85. Forced                                   : No
  86. Audio #3
  87. ID                                       : 4
  88. Format                                   : AAC LC
  89. Format/Info                              : Advanced Audio Codec Low Complexity
  90. Codec ID                                 : A_AAC-2
  91. Duration                                 : 1 h 35 min
  92. Bit rate                                 : 192 kb/s
  93. Channel(s)                               : 2 channels
  94. Channel layout                           : L R
  95. Sampling rate                            : 48.0 kHz
  96. Frame rate                               : 46.875 FPS (1024 SPF)
  97. Compression mode                         : Lossy
  98. Delay relative to video                  : 9 ms
  99. Stream size                              : 132 MiB (1%)
  100. Title                                    : Commentary by director George P. Cosmatos
  101. Language                                 : English
  102. Default                                  : No
  103. Forced                                   : No
  104. Text #1
  105. ID                                       : 5
  106. Format                                   : PGS
  107. Muxing mode                              : zlib
  108. Codec ID                                 : S_HDMV/PGS
  109. Codec ID/Info                            : Picture based subtitle format used on BDs/HD-DVDs
  110. Duration                                 : 1 h 32 min
  111. Bit rate                                 : 12.1 kb/s
  112. Count of elements                        : 1203
  113. Stream size                              : 7.98 MiB (0%)
  114. Title                                    : 国配特效
  115. Language                                 : Chinese
  116. Default                                  : Yes
  117. Forced                                   : No
  118. Text #2
  119. ID                                       : 6
  120. Format                                   : PGS
  121. Muxing mode                              : zlib
  122. Codec ID                                 : S_HDMV/PGS
  123. Codec ID/Info                            : Picture based subtitle format used on BDs/HD-DVDs
  124. Duration                                 : 1 h 32 min
  125. Bit rate                                 : 10.6 kb/s
  126. Count of elements                        : 1242
  127. Stream size                              : 7.01 MiB (0%)
  128. Title                                    : CHS
  129. Language                                 : Chinese
  130. Default                                  : No
  131. Forced                                   : No
  132. Text #3
  133. ID                                       : 7
  134. Format                                   : PGS
  135. Muxing mode                              : zlib
  136. Codec ID                                 : S_HDMV/PGS
  137. Codec ID/Info                            : Picture based subtitle format used on BDs/HD-DVDs
  138. Duration                                 : 1 h 31 min
  139. Bit rate                                 : 21.6 kb/s
  140. Count of elements                        : 1269
  141. Stream size                              : 14.2 MiB (0%)
  142. Title                                    : Chs&Eng
  143. Language                                 : Chinese
  144. Default                                  : Yes
  145. Forced                                   : No
  146. Text #4
  147. ID                                       : 8
  148. Format                                   : PGS
  149. Muxing mode                              : zlib
  150. Codec ID                                 : S_HDMV/PGS
  151. Codec ID/Info                            : Picture based subtitle format used on BDs/HD-DVDs
  152. Duration                                 : 1 h 34 min
  153. Bit rate                                 : 10.4 kb/s
  154. Count of elements                        : 882
  155. Stream size                              : 7.06 MiB (0%)
  156. Language                                 : English
  157. Default                                  : No
  158. Forced                                   : No
  159. Text #5
  160. ID                                       : 9
  161. Format                                   : PGS
  162. Muxing mode                              : zlib
  163. Codec ID                                 : S_HDMV/PGS
  164. Codec ID/Info                            : Picture based subtitle format used on BDs/HD-DVDs
  165. Duration                                 : 1 h 31 min
  166. Bit rate                                 : 9 569 b/s
  167. Count of elements                        : 960
  168. Stream size                              : 6.26 MiB (0%)
  169. Language                                 : French
  170. Default                                  : No
  171. Forced                                   : No
  172. Text #6
  173. ID                                       : 10
  174. Format                                   : PGS
  175. Muxing mode                              : zlib
  176. Codec ID                                 : S_HDMV/PGS
  177. Codec ID/Info                            : Picture based subtitle format used on BDs/HD-DVDs
  178. Duration                                 : 1 h 31 min
  179. Bit rate                                 : 11.7 kb/s
  180. Count of elements                        : 842
  181. Stream size                              : 7.68 MiB (0%)
  182. Language                                 : German
  183. Default                                  : No
  184. Forced                                   : No
  185. Text #7
  186. ID                                       : 11
  187. Format                                   : PGS
  188. Muxing mode                              : zlib
  189. Codec ID                                 : S_HDMV/PGS
  190. Codec ID/Info                            : Picture based subtitle format used on BDs/HD-DVDs
  191. Duration                                 : 1 h 35 min
  192. Bit rate                                 : 24.3 kb/s
  193. Count of elements                        : 1908
  194. Stream size                              : 16.5 MiB (0%)
  195. Title                                    : Commentary by director George P. Cosmatos
  196. Language                                 : French
  197. Default                                  : No
  198. Forced                                   : No
  199. Text #8
  200. ID                                       : 12
  201. Format                                   : PGS
  202. Muxing mode                              : zlib
  203. Codec ID                                 : S_HDMV/PGS
  204. Codec ID/Info                            : Picture based subtitle format used on BDs/HD-DVDs
  205. Duration                                 : 1 h 33 min
  206. Bit rate                                 : 19.2 kb/s
  207. Count of elements                        : 1230
  208. Stream size                              : 12.8 MiB (0%)
  209. Title                                    : Commentary by director George P. Cosmatos
  210. Language                                 : German
  211. Default                                  : No
  212. Forced                                   : No
  213. Menu
  214. 00:00:00.000                             : :Chapter 01
  215. 00:09:02.041                             : :Chapter 02
  216. 00:17:38.208                             : :Chapter 03
  217. 00:26:11.625                             : :Chapter 04
  218. 00:35:21.541                             : :Chapter 05
  219. 00:45:45.208                             : :Chapter 06
  220. 00:55:17.791                             : :Chapter 07
  221. 01:06:14.875                             : :Chapter 08
  222. 01:15:45.333                             : :Chapter 09
  223. 01:26:23.666                             : :Chapter 10





此处一般会放置磁力链或种子下载链接,不过此链接需要注册会员才能看到,点击“立即注册”
磁力链下载【下载链接仅对注册会员开放,登陆后可见】
BT9527电影天堂 1、BT9527电影天堂提供的BT文件均来源于互联网抓取,只供网友学习交流、技术提升使用。
2、我们遵守BitTorrent点对点协议原则,任何版权问题请联系原资源发布商,我们不处理任何版权纠纷,谢谢!如有争议请联系邮箱:BT9527#hotmail.com(#换成@)
3、如果您发现某页面或地址有错误,请联系站长邮箱BT9527#hotmail.com(#换成@),我们会尽快处理。您的热心是对BT9527电影天堂最大的支持。
4、本站建议去正规影院观看电影以支持电影行业发展。
最新回复 (0)

你可以在 登录 or 注册 后,对此帖发表评论!

返回
发新帖