为爱找一个房间[中文字幕].Love.Gets.a.Room.2021.1080p.BluRay.DTS.x265-10bit-ENTHD 6.65GB

版主小s 17天前 33

✔资源类型:暂未分类   ✔电影年份:2021   ✔电影地区:其他   ✔电影分类:剧情

◎译  名 为爱找一个房间 / Love Gets a Room
◎片  名 El amor en su lugar
◎年  代 2021
◎产  地 西班牙 / 英国
◎类  别 剧情 / 爱情 / 歌舞 / 冒险
◎语  言 英语 / 德语 / 意第绪语 / 希伯来语
◎上映日期 2021-12-03(西班牙)
◎IMDb链接 https://www.imdb.com/title/tt15444704/
◎豆瓣链接 https://movie.douban.com/subject/35624890/
◎片  长 103分钟
◎导  演 罗德里戈·科尔特斯 Rodrigo Cortés (id:1275549)
◎编  剧 罗德里戈·科尔特斯 Rodrigo Cortés (id:1275549)
       Jerzy Jurandot Jerzy Jurandot (id:1035368)
       大卫·萨菲尔 David Safier (id:1146374)
◎演  员 克拉拉·卢嘉 Clara Rugaard (id:1408101)
       福迪亚·瓦尔什-匹罗 Ferdia Walsh-Peelo (id:1357404)
       马克·赖德 Mark Ryder (id:1328595)
       瓦伦蒂娜·贝莱 Valentina Bellè (id:1365795)
       杰克·罗思 Jack Roth (id:1337581)
       Freya Parks Freya Parks (id:1345022)
       阿纳斯塔西娅·希尔 Anastasia Hille (id:1372663)
       马格努斯·克雷佩 Magnus Krepper (id:1109069)
       亨利·古德曼 Henry Goodman (id:1099473)

◎简  介
  A group of actors perform in the heart of the Warsaw Ghetto, in a life or death context on a run-down stage.

◎获奖情况 (共2项)
  第36届西班牙戈雅奖 (2022)
  最佳制作人(提名)
  最佳服装设计(提名)

  1. ##### MediaInfo ######
  2. General
  3. Unique ID                                : 190986070411871770978926140330939252295 (0x8FAE94463C43C41AF91BD5EF3613FE47)
  4. Complete name                            : Love.Gets.a.Room.2021.1080p.BluRay.DTS.x265-10bit-ENTHD.mkv
  5. Format                                   : Matroska
  6. Format version                           : Version 4
  7. File size                                : 6.65 GiB
  8. Duration                                 : 1 h 35 min
  9. Overall bit rate mode                    : Variable
  10. Overall bit rate                         : 9 955 kb/s
  11. Movie name                               : Love Gets a Room 2021 1080p BluRay DTS x265-10bit-HDS
  12. Encoded date                             : UTC 2022-06-08 04:04:15
  13. Writing application                      : mkvmerge v67.0.0 ('Under Stars') 64-bit
  14. Writing library                          : libebml v1.4.2 + libmatroska v1.6.4
  15. Video
  16. ID                                       : 1
  17. Format                                   : HEVC
  18. Format/Info                              : High Efficiency Video Coding
  19. Format profile                           : Main 10@L5.1@High
  20. Codec ID                                 : V_MPEGH/ISO/HEVC
  21. Duration                                 : 1 h 35 min
  22. Bit rate                                 : 6 252 kb/s
  23. Width                                    : 1 920 pixels
  24. Height                                   : 800 pixels
  25. Display aspect ratio                     : 2.40:1
  26. Frame rate mode                          : Constant
  27. Frame rate                               : 24.000 FPS
  28. Color space                              : YUV
  29. Chroma subsampling                       : 4:2:0
  30. Bit depth                                : 10 bits
  31. Bits/(Pixel*Frame)                       : 0.170
  32. Stream size                              : 4.18 GiB (63%)
  33. Title                                    : biki@HDSky
  34. Writing library                          : x265 - H.265/HEVC codec
  35. Default                                  : Yes
  36. Forced                                   : No
  37. Audio
  38. ID                                       : 2
  39. Format                                   : DTS XLL
  40. Format/Info                              : Digital Theater Systems
  41. Commercial name                          : DTS-HD Master Audio
  42. Codec ID                                 : A_DTS
  43. Duration                                 : 1 h 35 min
  44. Bit rate mode                            : Variable
  45. Bit rate                                 : 3 700 kb/s
  46. Channel(s)                               : 6 channels
  47. Channel layout                           : C L R Ls Rs LFE
  48. Sampling rate                            : 48.0 kHz
  49. Frame rate                               : 93.750 FPS (512 SPF)
  50. Bit depth                                : 24 bits
  51. Compression mode                         : Lossless
  52. Stream size                              : 2.47 GiB (37%)
  53. Title                                    : English
  54. Language                                 : English
  55. Default                                  : Yes
  56. Forced                                   : No
  57. Text
  58. ID                                       : 3
  59. Format                                   : PGS
  60. Muxing mode                              : zlib
  61. Codec ID                                 : S_HDMV/PGS
  62. Codec ID/Info                            : Picture based subtitle format used on BDs/HD-DVDs
  63. Duration                                 : 208 ms
  64. Bit rate                                 : 21.5 kb/s
  65. Count of elements                        : 2
  66. Stream size                              : 559 Bytes (0%)
  67. Title                                    : CHS
  68. Language                                 : Chinese
  69. Default                                  : Yes
  70. Forced                                   : No
  71. Menu
  72. 00:00:00.000                             : en:第 01 章
  73. 00:07:51.000                             : en:第 02 章
  74. 00:13:52.875                             : en:第 03 章
  75. 00:21:28.208                             : en:第 04 章
  76. 00:27:40.333                             : en:第 05 章
  77. 00:35:00.750                             : en:第 06 章
  78. 00:43:26.083                             : en:第 07 章
  79. 00:51:12.833                             : en:第 08 章
  80. 00:58:12.083                             : en:第 09 章
  81. 01:06:13.292                             : en:第 10 章
  82. 01:13:52.500                             : en:第 11 章
  83. 01:23:55.417                             : en:第 12 章





此处一般会放置磁力链或种子下载链接,不过此链接需要注册会员才能看到,点击“立即注册”
磁力链下载【下载链接仅对注册会员开放,登陆后可见】
BT9527电影天堂 1、BT9527电影天堂提供的BT文件均来源于互联网抓取,只供网友学习交流、技术提升使用。
2、我们遵守BitTorrent点对点协议原则,任何版权问题请联系原资源发布商,我们不处理任何版权纠纷,谢谢!如有争议请联系邮箱:BT9527#hotmail.com(#换成@)
3、如果您发现某页面或地址有错误,请联系站长邮箱BT9527#hotmail.com(#换成@),我们会尽快处理。您的热心是对BT9527电影天堂最大的支持。
4、本站建议去正规影院观看电影以支持电影行业发展。
最新回复 (0)

你可以在 登录 or 注册 后,对此帖发表评论!

返回
发新帖