第一滴血[国英多音轨/简英特效字幕].Rambo.First.Blood.1982.BluRay.2160p.x265.10bit.HDR.2Audio-MiniHD 16.74GB

版主小s 3月前 150

✔资源类型:BD-4K   ✔电影年份:更 早   ✔电影地区:欧美   ✔电影分类:剧情

◎译  名 第一滴血 / 兰博 / Rambo: First Blood
◎片  名 First Blood
◎年  代 1982
◎产  地 美国
◎类  别 剧情 / 动作 / 冒险
◎语  言 英语
◎上映日期 1982-10-22
◎IMDb链接 https://www.imdb.com/title/tt0083944/
◎豆瓣评分 8.3/10 (83726人评价)
◎豆瓣链接 https://movie.douban.com/subject/1294323/
◎片  长 93分钟
◎导  演 特德·科特切夫 Ted Kotcheff (id:1000507)
◎编  剧 迈克尔·科佐尔 Michael Kozoll (id:1288965)
       威廉·沙克海姆 William Sackheim (id:1042232)
       西尔维斯特·史泰龙 Sylvester Stallone (id:1047996)
◎演  员 西尔维斯特·史泰龙 Sylvester Stallone (id:1047996)
       理查德·克里纳 Richard Crenna (id:1036515)
       布莱恩·丹内利 Brian Dennehy (id:1013729)
       比尔·麦金尼 Bill McKinney (id:1115045)
       杰克·斯塔雷特 Jack Starrett (id:1041333)
       Michael Talbott Michael Talbott (id:1160273)
       克里斯·马尔基 Chris Mulkey (id:1048223)
       约翰·麦克利亚姆 John McLiam (id:1007184)
       大卫·卡罗素 David Caruso (id:1013852)
       查尔斯·A·坦伯罗 Charles A. Tamburro (id:1298880)
       斯蒂芬·E·米勒 Stephen E. Miller (id:1323247)
       布鲁斯·格林伍德 Bruce Greenwood (id:1025206)
       加里·海瑟林顿 Gary Hetherington (id:1093898)
       史蒂芬·常 Stephen Chang (id:1355408)
       蘇琪·白 Suzee Pai (id:1126227)
       John Rigg John Rigg (id:1146860)
       Craig Huston Craig Huston (id:1287206)
       巴茨·费特香斯 Buzz Feitshans (id:1283529)
       沃尔夫·克罗伊格 Wolf Kroeger (id:1289046)
       Craig Huston Craig Huston (id:1287206)
       汤姆·诺伯 Thom Noble (id:1293221)

◎简  介
  退伍军人兰博(西尔维斯特?史泰龙Sylvester Stallone 饰)从越南回国,他回到已显得陌生的原居小镇,当地警长(布莱恩?丹内利 Brian Dennehy 饰)看到这个退伍军人的第一眼起,就开始对兰博百般挑剔,甚至将他带回警局肆意侮辱,不堪忍受责打的兰博袭警之后逃跑。警长召集大批警察展开对兰博的追捕,兰博逃至荒山野林之中,不断用自己在越战中掌握的游击战术对警察展开反击,他抢劫了一辆武器运输车返回小镇烧毁了商店,法律和武器都不能阻止兰博了。兰博在越战时的长官上校(理查德?克里纳 Richard Crenna  饰)出现,劝说兰博放下枪械,愤懑已久的兰博吼出了自己的困惑与不甘……
  1. ##### MediaInfo ######
  2. General
  3. Unique ID                                : 24031403884449718834360470535741291106 (0x121447B05A3053BE50FCF2D9D462BA62)
  4. Complete name                            : Rambo.First.Blood.1982.BluRay.2160p.x265.10bit.HDR.2Audio-MiniHD.mkv
  5. Format                                   : Matroska
  6. Format version                           : Version 4
  7. File size                                : 16.7 GiB
  8. Duration                                 : 1 h 33 min
  9. Overall bit rate mode                    : Variable
  10. Overall bit rate                         : 25.7 Mb/s
  11. Encoded date                             : UTC 2018-12-21 01:43:59
  12. Writing application                      : mkvmerge v20.0.0 ('I Am The Sun') 64-bit
  13. Writing library                          : libebml v1.3.5 + libmatroska v1.4.8
  14. Video
  15. ID                                       : 1
  16. Format                                   : HEVC
  17. Format/Info                              : High Efficiency Video Coding
  18. Format profile                           : Main 10@L5.1@High
  19. HDR format                               : SMPTE ST 2086, HDR10 compatible
  20. Codec ID                                 : V_MPEGH/ISO/HEVC
  21. Duration                                 : 1 h 33 min
  22. Bit rate                                 : 20.3 Mb/s
  23. Width                                    : 3 840 pixels
  24. Height                                   : 1 604 pixels
  25. Display aspect ratio                     : 2.40:1
  26. Frame rate mode                          : Constant
  27. Frame rate                               : 24.000 FPS
  28. Color space                              : YUV
  29. Chroma subsampling                       : 4:2:0
  30. Bit depth                                : 10 bits
  31. Bits/(Pixel*Frame)                       : 0.137
  32. Stream size                              : 13.2 GiB (79%)
  33. Writing library                          : x265 2.8+4-g0ad419482+18:[Windows][GCC 7.1.0][64 bit] Yuuki 10bit
  34. Encoding settings                        : rc=crf / crf=19.5000 / qcomp=0.70 / qpstep=4 / vbv-maxrate=160000 / vbv-bufsize=160000 / vbv-init=0.9 / crf-max=0.0 / crf-min=0.0 / aq-mode=3 / aq-strength=0.80 / cbqpoffs=-3 / crqpoffs=-3 / ipratio=1.40 / pbratio=1.20 / psy-rd=2.00 / psy-rdoq=5.00 / deblock=-1:-1 / ref=5 / bframes=9 / b-adapt=2 / bframe-bias=0 / b-pyramid / b-intra / weightp / weightb / min-keyint=24 / max-keyint=300 / rc-lookahead=40 / gop-lookahead=0 / NTMzNTQ=uuDQuD2mJt9fsCf / scenecut=40 / radl=0 / max-cu-size=32 / min-cu-size=8 / me=3 / subme=4 / merange=25 / rdoq-level=2 / rd=4 / rdpenalty=1 / ----- / cutree / no-sao / no-rect / no-amp / no-open-gop / wpp / no-pmode / no-pme / no-psnr / no-ssim / nr-intra=0 / nr-inter=0 / no-constrained-intra / no-strong-intra-smoothing / max-tu-size=32 / tu-inter-depth=2 / tu-intra-depth=2 / limit-tu=4 / qg-size=32 / qpmax=69 / qpmin=0 / ----- / cpuid=533541111039 / frame-threads=5 / numa-pools=84,- / log-level=2 / input-csp=1 / input-res=3840x1604 / interlace=0 / level-idc=0 / high-tier=1 / uhd-bd=0 / no-allow-non-conformance / no-repeat-headers / no-aud / hrd / info / hash=0 / no-temporal-layers / lookahead-slices=4 / no-intra-refresh / dynamic-rd=0.00 / no-ssim-rd / signhide / no-tskip / max-merge=3 / limit-refs=2 / limit-modes / temporal-mvp / no-analyze-src-pics / no-sao-non-deblock / no-early-skip / no-rskip / no-fast-intra / no-tskip-fast / no-cu-lossless / no-splitrd-skip / no-rd-refine / no-lossless / zone-count=0 / no-strict-cbr / no-rc-grain / no-const-vbv / sar=0 / overscan=0 / videoformat=5 / range=0 / colorprim=9 / transfer=16 / colormatrix=9 / chromaloc=0 / display-window=0 / master-display=G(13250,34500)B(7500,3000)R(34000,16000)WP(15635,16450)L(10000000,1) / max-cll=479,433 / min-luma=0 / max-luma=1023 / log2-max-poc-lsb=8 / vui-timing-info / vui-hrd-info / slices=1 / no-opt-qp-pps / no-opt-ref-list-length-pps / no-multi-pass-opt-rps / scenecut-bias=0.05 / no-opt-cu-delta-qp / no-aq-motion / hdr / hdr-opt / no-dhdr10-opt / no-idr-recovery-sei / analysis-reuse-level=5 / scale-factor=0 / refine-intra=0 / refine-inter=0 / refine-mv=0 / no-limit-sao / ctu-info=0 / no-lowpass-dct / refine-mv-type=0 / copy-pic=1 / max-ausize-factor=1.0 / no-dynamic-refine / no-single-sei
  35. Default                                  : Yes
  36. Forced                                   : No
  37. Color range                              : Limited
  38. Color primaries                          : BT.2020
  39. Transfer characteristics                 : PQ
  40. Matrix coefficients                      : BT.2020 non-constant
  41. Mastering display color primaries        : Display P3
  42. Mastering display luminance              : min: 0.0001 cd/m2, max: 1000 cd/m2
  43. Maximum Content Light Level              : 479 cd/m2
  44. Maximum Frame-Average Light Level        : 433 cd/m2
  45. Audio #1
  46. ID                                       : 2
  47. Format                                   : DTS XLL
  48. Format/Info                              : Digital Theater Systems
  49. Commercial name                          : DTS-HD Master Audio
  50. Codec ID                                 : A_DTS
  51. Duration                                 : 1 h 33 min
  52. Bit rate mode                            : Variable
  53. Bit rate                                 : 3 407 kb/s
  54. Channel(s)                               : 6 channels
  55. Channel layout                           : C L R Ls Rs LFE
  56. Sampling rate                            : 48.0 kHz
  57. Frame rate                               : 93.750 FPS (512 SPF)
  58. Bit depth                                : 24 bits
  59. Compression mode                         : Lossless
  60. Stream size                              : 2.22 GiB (13%)
  61. Title                                    : 英语
  62. Language                                 : English
  63. Default                                  : Yes
  64. Forced                                   : No
  65. Audio #2
  66. ID                                       : 3
  67. Format                                   : DTS XLL
  68. Format/Info                              : Digital Theater Systems
  69. Commercial name                          : DTS-HD Master Audio
  70. Codec ID                                 : A_DTS
  71. Duration                                 : 1 h 33 min
  72. Bit rate mode                            : Variable
  73. Bit rate                                 : 1 911 kb/s
  74. Channel(s)                               : 6 channels
  75. Channel layout                           : C L R Ls Rs LFE
  76. Sampling rate                            : 48.0 kHz
  77. Frame rate                               : 93.750 FPS (512 SPF)
  78. Bit depth                                : 16 bits
  79. Compression mode                         : Lossless
  80. Delay relative to video                  : 20 s 550 ms
  81. Stream size                              : 1.24 GiB (7%)
  82. Title                                    : 华录国语
  83. Language                                 : Chinese
  84. Default                                  : No
  85. Forced                                   : No
  86. Text #1
  87. ID                                       : 4
  88. Format                                   : PGS
  89. Muxing mode                              : zlib
  90. Codec ID                                 : S_HDMV/PGS
  91. Codec ID/Info                            : Picture based subtitle format used on BDs/HD-DVDs
  92. Duration                                 : 1 h 32 min
  93. Bit rate                                 : 42.8 kb/s
  94. Count of elements                        : 2587
  95. Stream size                              : 28.4 MiB (0%)
  96. Title                                    : 国配特效
  97. Language                                 : Chinese
  98. Default                                  : Yes
  99. Forced                                   : No
  100. Text #2
  101. ID                                       : 5
  102. Format                                   : PGS
  103. Muxing mode                              : zlib
  104. Codec ID                                 : S_HDMV/PGS
  105. Codec ID/Info                            : Picture based subtitle format used on BDs/HD-DVDs
  106. Duration                                 : 1 h 28 min
  107. Bit rate                                 : 15.2 kb/s
  108. Count of elements                        : 1500
  109. Stream size                              : 9.65 MiB (0%)
  110. Title                                    : 简体中文
  111. Language                                 : Chinese
  112. Default                                  : No
  113. Forced                                   : No
  114. Text #3
  115. ID                                       : 6
  116. Format                                   : PGS
  117. Muxing mode                              : zlib
  118. Codec ID                                 : S_HDMV/PGS
  119. Codec ID/Info                            : Picture based subtitle format used on BDs/HD-DVDs
  120. Duration                                 : 1 h 29 min
  121. Bit rate                                 : 36.2 kb/s
  122. Count of elements                        : 1928
  123. Stream size                              : 23.2 MiB (0%)
  124. Title                                    : 简英双语
  125. Language                                 : Chinese
  126. Default                                  : No
  127. Forced                                   : No
  128. Text #4
  129. ID                                       : 7
  130. Format                                   : PGS
  131. Muxing mode                              : zlib
  132. Codec ID                                 : S_HDMV/PGS
  133. Codec ID/Info                            : Picture based subtitle format used on BDs/HD-DVDs
  134. Duration                                 : 1 h 30 min
  135. Bit rate                                 : 15.9 kb/s
  136. Count of elements                        : 1216
  137. Stream size                              : 10.3 MiB (0%)
  138. Title                                    : 英文
  139. Language                                 : English
  140. Default                                  : No
  141. Forced                                   : No
  142. Menu
  143. 00:00:00.000                             : :00:00:00.000
  144. 00:10:13.167                             : :00:10:13.167
  145. 00:20:49.208                             : :00:20:49.208
  146. 00:30:31.417                             : :00:30:31.417
  147. 00:38:40.833                             : :00:38:40.833
  148. 00:47:38.625                             : :00:47:38.625
  149. 00:56:32.708                             : :00:56:32.708
  150. 01:06:07.125                             : :01:06:07.125
  151. 01:16:08.583                             : :01:16:08.583
  152. 01:24:46.167                             : :01:24:46.167





此处一般会放置磁力链或种子下载链接,不过此链接需要注册会员才能看到,点击“立即注册”
磁力链下载【下载链接仅对注册会员开放,登陆后可见】
BT9527电影天堂 1、BT9527电影天堂提供的BT文件均来源于互联网抓取,只供网友学习交流、技术提升使用。
2、我们遵守BitTorrent点对点协议原则,任何版权问题请联系原资源发布商,我们不处理任何版权纠纷,谢谢!如有争议请联系邮箱:BT9527#hotmail.com(#换成@)
3、如果您发现某页面或地址有错误,请联系站长邮箱BT9527#hotmail.com(#换成@),我们会尽快处理。您的热心是对BT9527电影天堂最大的支持。
4、本站建议去正规影院观看电影以支持电影行业发展。
最新回复 (0)

你可以在 登录 or 注册 后,对此帖发表评论!

返回