佛罗伦萨与乌菲兹美术馆3D[中文字幕].Florence.and.the.Uffizi.Gallery.2015.2160p.SDR.UHD.BluRay.DTS.x265-10bit-ENTHD 9.27GB

版主小s 3月前 158

✔资源类型:BD-4K   ✔电影年份:2015   ✔电影地区:其他   ✔电影分类:其他

◎译  名 佛罗伦萨与乌菲兹美术馆3D / 佛罗伦萨与乌菲兹美术馆 / Firenze e gli Uffizi / Firenze e gli Uffizi 3D / 4K
◎片  名 Florence and the Uffizi Gallery
◎年  代 2015
◎产  地 意大利
◎类  别 纪录片 / 历史
◎语  言 意大利语 / 英语
◎上映日期 2017-07-08(中国大陆) / 2015-11-03(意大利)
◎IMDb链接 https://www.imdb.com/title/tt5295134/
◎豆瓣评分 7.8/10 (2882人评价)
◎豆瓣链接 https://movie.douban.com/subject/26671329/
◎片  长 97分钟
◎导  演 卢卡·维奥托 Luca Viotto (id:1371555)
◎编  剧 劳拉·阿列维 Laura Allievi (id:1371556)
◎演  员 马可·恰蒂 Marco Ciatti (id:1371557)
       阿图罗·加兰西诺 Arturo Galansino (id:1371558)
       西蒙·梅雷尔斯 Simon Merrells (id:1328124)
       安东尼奥·纳塔利 Antonio Natali (id:1371559)

◎简  介
  《佛罗伦萨和乌菲兹美术馆》远不止是一部关于经典艺术的纪录片,而是一段以多维度、多媒体视听盛宴的方式,通过剖析当时最美最具代表性的艺术作品,深度探寻意大利文艺复兴的旅程。                                    
                                在世界电影史上,我们首次迎来了一部关于真正的露天美术馆——佛罗伦萨的艺术电影。3D技术为我们带来了前所未有的身临其境的视觉体验:艺术作品通过三维视觉效果得到增强,那无与伦比的美感跃然而出。影片中激励人心、情感充沛的解说来自文艺复兴时期的一位领军人物,我们的导游主持人,伟大的洛伦佐,由西蒙·米瑞尔斯饰演。在永恒的无涯之境,伴随着精心挑选的壮丽的背景音乐,洛伦佐带领我们游览“他的”佛罗伦萨——文艺复兴时期文明的摇篮。
  1. ##### MediaInfo ######
  2. General
  3. Unique ID                                : 236140020893044621578154821955003275789 (0xB1A6E9EA3FE1673FE82EA42E5D4EDA0D)
  4. Complete name                            : Florence.and.the.Uffizi.Gallery.2015.2160p.SDR.UHD.BluRay.DTS.x265-10bit-ENTHD.mkv
  5. Format                                   : Matroska
  6. Format version                           : Version 4
  7. File size                                : 9.27 GiB
  8. Duration                                 : 1 h 30 min
  9. Overall bit rate                         : 14.6 Mb/s
  10. Movie name                               : Florence and the Uffizi Gallery 2015 2160p SDR UHD BluRay DTS x265-10bit-HDS
  11. Encoded date                             : UTC 2022-06-09 23:19:21
  12. Writing application                      : mkvmerge v67.0.0 ('Under Stars') 64-bit
  13. Writing library                          : libebml v1.4.2 + libmatroska v1.6.4
  14. Video
  15. ID                                       : 1
  16. Format                                   : HEVC
  17. Format/Info                              : High Efficiency Video Coding
  18. Format profile                           : Main 10@L5.1@High
  19. Codec ID                                 : V_MPEGH/ISO/HEVC
  20. Duration                                 : 1 h 30 min
  21. Bit rate                                 : 13.1 Mb/s
  22. Width                                    : 3 840 pixels
  23. Height                                   : 2 076 pixels
  24. Display aspect ratio                     : 1.85:1
  25. Frame rate mode                          : Constant
  26. Frame rate                               : 24.000 FPS
  27. Color space                              : YUV
  28. Chroma subsampling                       : 4:2:0
  29. Bit depth                                : 10 bits
  30. Bits/(Pixel*Frame)                       : 0.068
  31. Stream size                              : 8.29 GiB (89%)
  32. Title                                    : @HDSky
  33. Writing library                          : x265 - H.265/HEVC codec
  34. Default                                  : Yes
  35. Forced                                   : No
  36. Audio
  37. ID                                       : 2
  38. Format                                   : DTS
  39. Format/Info                              : Digital Theater Systems
  40. Codec ID                                 : A_DTS
  41. Duration                                 : 1 h 30 min
  42. Bit rate mode                            : Constant
  43. Bit rate                                 : 1 509 kb/s
  44. Channel(s)                               : 6 channels
  45. Channel layout                           : C L R Ls Rs LFE
  46. Sampling rate                            : 48.0 kHz
  47. Frame rate                               : 93.750 FPS (512 SPF)
  48. Bit depth                                : 24 bits
  49. Compression mode                         : Lossy
  50. Stream size                              : 981 MiB (10%)
  51. Title                                    : Italian
  52. Language                                 : Italian
  53. Default                                  : Yes
  54. Forced                                   : No
  55. Text #1
  56. ID                                       : 3
  57. Format                                   : PGS
  58. Muxing mode                              : zlib
  59. Codec ID                                 : S_HDMV/PGS
  60. Codec ID/Info                            : Picture based subtitle format used on BDs/HD-DVDs
  61. Duration                                 : 1 h 26 min
  62. Bit rate                                 : 31.8 kb/s
  63. Count of elements                        : 1108
  64. Stream size                              : 19.6 MiB (0%)
  65. Title                                    : CHS
  66. Language                                 : Chinese
  67. Default                                  : Yes
  68. Forced                                   : No
  69. Text #2
  70. ID                                       : 4
  71. Format                                   : PGS
  72. Muxing mode                              : zlib
  73. Codec ID                                 : S_HDMV/PGS
  74. Codec ID/Info                            : Picture based subtitle format used on BDs/HD-DVDs
  75. Duration                                 : 1 h 26 min
  76. Bit rate                                 : 32.9 kb/s
  77. Count of elements                        : 1108
  78. Stream size                              : 20.3 MiB (0%)
  79. Title                                    : CHT
  80. Language                                 : Chinese
  81. Default                                  : Yes
  82. Forced                                   : No
  83. Menu
  84. 00:00:00.000                             : en:第 01 章
  85. 00:00:04.333                             : en:第 02 章
  86. 00:04:21.042                             : en:第 03 章
  87. 00:08:47.875                             : en:第 04 章
  88. 00:16:49.833                             : en:第 05 章
  89. 00:24:35.500                             : en:第 06 章
  90. 00:33:44.375                             : en:第 07 章
  91. 00:44:08.875                             : en:第 08 章
  92. 00:50:01.875                             : en:第 09 章
  93. 00:57:43.208                             : en:第 10 章
  94. 01:06:49.625                             : en:第 11 章
  95. 01:12:25.333                             : en:第 12 章
  96. 01:18:31.417                             : en:第 13 章
  97. 01:22:56.583                             : en:第 14 章
  98. 01:26:29.500                             : en:第 15 章





此处一般会放置磁力链或种子下载链接,不过此链接需要注册会员才能看到,点击“立即注册”
磁力链下载【下载链接仅对注册会员开放,登陆后可见】
BT9527电影天堂 1、BT9527电影天堂提供的BT文件均来源于互联网抓取,只供网友学习交流、技术提升使用。
2、我们遵守BitTorrent点对点协议原则,任何版权问题请联系原资源发布商,我们不处理任何版权纠纷,谢谢!如有争议请联系邮箱:BT9527#hotmail.com(#换成@)
3、如果您发现某页面或地址有错误,请联系站长邮箱BT9527#hotmail.com(#换成@),我们会尽快处理。您的热心是对BT9527电影天堂最大的支持。
4、本站建议去正规影院观看电影以支持电影行业发展。
最新回复 (0)

你可以在 登录 or 注册 后,对此帖发表评论!

返回