辩护人[中英字幕].The.Attorney.2013.BluRay.1080p.x265.10bit-MiniHD 3.78GB

版主小s 3月前 256

✔资源类型:暂未分类   ✔电影年份:2013   ✔电影地区:韩国   ✔电影分类:剧情

◎译  名 辩护人 / 逆权大状(港) / 正义辩护人(台) / The Attorney
◎片  名 ???
◎年  代 2013
◎产  地 韩国
◎类  别 剧情
◎语  言 韩语
◎上映日期 2013-12-18(韩国)
◎IMDb链接 https://www.imdb.com/title/tt3404140/
◎豆瓣评分 9.2/10 (544405人评价)
◎豆瓣链接 https://movie.douban.com/subject/21937445/
◎片  长 127分钟
◎导  演 杨宇硕 Woo-seok Yang (id:1338840)
◎编  剧 杨宇硕 Woo-seok Yang (id:1338840)
       尹贤浩 Hyeon-ho Yoon (id:1340054)
◎演  员 宋康昊 Kang-ho Song (id:1031238)
       金英爱 Yeong-ae Kim (id:1314843)
       吴达洙 Dal-su Oh (id:1203077)
       郭度沅 Do-Won Kwak (id:1320516)
       任时完 Si-wan Yim (id:1317431)
       宋永彰 Young-chang Song (id:1158386)
       郑元中 Won-jung Jeong (id:1274755)
       赵敏基 Min-Ki Cho (id:1323060)
       李杭娜 Hang-na Lee (id:1358604)
       李星民 Sung-min Lee (id:1321576)
       车光洙 Kwang-soo Cha (id:1426240)
       韩基重 Ki-jung Han (id:1388760)
       沈熙燮 Hee-seop Sim (id:1332623)
       赵莞基 Wan-gi Jo (id:1383541)
       李姃垠 Jung-eun Lee (id:1356030)
       朴成根 Sung-geun Park (id:1385185)
       郑俊元 Joon-won Jeong (id:1376163)
       李真熙 Lee Jin-hee (id:1383748)
       朴修荣 Park Soo-young (id:1379542)
       李率求 Seol-goo Lee (id:1378878)
       张利雨 Jang Liu (id:1381688)
       权五镇 Kwon Oh-jin (id:1381051)
       崔正贤 Jung Hyun Choi (id:1400417)
       薛昌熙 Chang-hee Seol (id:1385485)
       杨明宪 Yang Myeong-heon (id:1387075)
       黄健 ?? (id:1398607)
       曹善默 Sun-mook Jo (id:1423910)
       刘河福 Ha-bok Yoo (id:1376443)
       杨道贤 Do-hyeon Yang (id:1398008)
       全光镇 Kwang-jin Jeon (id:1398058)
       申承勇 Seung-yong Sin (id:1390361)
       金佳英 Kim Ga Young (id:1453700)
       李善熙 Seon-hee Lee (id:1320569)
       曹永旭 Yeong-wook Jo (id:1287735)
       Tae-yun Lee Tae-yun Lee (id:1452408)
       柳星姬 Seong-hie Ryu (id:1307424)

◎简  介
  1978年,只有高中学历的宋佑硕(宋康昊 饰)通过多年的艰苦努力,终于通过司法考试,并在成为法官后很快转行成为一名律师。他敏锐地从最新政策中嗅到商机,以不动产代书业务起家。虽然被同行讥讽为随时随地派发名片的夜店小弟,但佑硕不以为忤,一步一步朝着心中的目标迈进。他依靠赚来的钱让妻儿过上富足的生活,也还了七年前在饭店大婶那里欠下的良心债。进入20世纪80年代,韩国民主化斗争愈演愈烈。佑硕全然不管窗外事,关起门来继续赚钱。然而社会的巨变已经不容他置身事外,饭店大婶的儿子朴镇宇因从属的釜山读书联合会被控为左翼社团而遭到逮捕,更受到残酷的虐待和不公的指控。                                    
                                虽然爱钱却更重感情的佑硕,就这样走上了为民主辩护的道路……

◎获奖情况 (共36项)
  第35届韩国电影青龙奖 (2014)
  最佳影片
  最佳男主角
   └──宋康昊 (id:1031238)
  最佳男配角(提名)
   └──郭度沅 (id:1320516)
  最佳女配角
   └──金英爱 (id:1314843)
  最佳新人导演(提名)
   └──杨宇硕 (id:1338840)
  最佳新人男演员(提名)
   └──任时完 (id:1317431)
  最佳剧本(提名)
   └──杨宇硕 (id:1338840)
  最佳摄影(提名)
  最佳剪辑(提名)
  最佳配乐(提名)
  最佳照明(提名)
  人气奖
   └──任时完 (id:1317431)

  第8届亚洲电影大奖 (2014)
  最佳男主角(提名)
   └──宋康昊 (id:1031238)
  最佳新演员(提名)
   └──任时完 (id:1317431)
  最佳女配角(提名)
   └──金英爱 (id:1314843)

  第50届百想艺术大赏 (2014)
  电影类 最佳影片
   └──杨宇硕 (id:1338840)
  电影类 最佳男主角(提名)
   └──宋康昊 (id:1031238)
  电影类 最佳男配角(提名)
   └──郭度沅 (id:1320516)
  电影类 最佳女配角(提名)
   └──金英爱 (id:1314843)
  电影类 最佳新人男演员(提名)
   └──任时完 (id:1317431)
  电影类 最佳新人导演
   └──杨宇硕 (id:1338840)
  电影类 最佳编剧(提名)

  第51届韩国电影大钟奖 (2014)
  最佳影片(提名)
  最佳男主角(提名)
   └──宋康昊 (id:1031238)
  最佳男配角(提名)
   └──郭度沅 (id:1320516)
  最佳女配角(提名)
   └──金英爱 (id:1314843)
  最佳新人导演(提名)
   └──杨宇硕 (id:1338840)
  最佳新人男演员(提名)
   └──任时完 (id:1317431)
  最佳剧本(提名)
  最佳摄影(提名)
  最佳剪辑(提名)
  最佳美术(提名)
  最佳照明(提名)

  第6届豆瓣电影年度榜单 (2019)
  2010s电影(提名)

  第1届豆瓣电影年度榜单 (2014)
  评分最高的韩国电影

  第5届豆瓣电影鑫像奖 (2015)
  鑫豆单元 最佳韩国电影

  1. ##### MediaInfo ######
  2. General
  3. Unique ID                                : 248809346339779178086394130091990457624 (0xBB2EEFE2E590F46B9AE82F9EAA3A1D18)
  4. Complete name                            : The.Attorney.2013.BluRay.1080p.x265.10bit-MiniHD.mkv
  5. Format                                   : Matroska
  6. Format version                           : Version 4
  7. File size                                : 3.77 GiB
  8. Duration                                 : 2 h 7 min
  9. Overall bit rate                         : 4 244 kb/s
  10. Encoded date                             : UTC 2017-09-11 08:05:51
  11. Writing application                      : mkvmerge v11.0.0 ('Alive') 64bit
  12. Writing library                          : libebml v1.3.4 + libmatroska v1.4.5
  13. Video
  14. ID                                       : 1
  15. Format                                   : HEVC
  16. Format/Info                              : High Efficiency Video Coding
  17. Codec ID                                 : V_MPEGH/ISO/HEVC
  18. Duration                                 : 2 h 7 min
  19. Bit rate                                 : 3 531 kb/s
  20. Width                                    : 1 920 pixels
  21. Height                                   : 1 038 pixels
  22. Display aspect ratio                     : 1.85:1
  23. Frame rate mode                          : Constant
  24. Frame rate                               : 23.976 (24000/1001/53354) FPS
  25. Bits/(Pixel*Frame)                       : 0.074
  26. Stream size                              : 3.14 GiB (83%)
  27. Default                                  : Yes
  28. Forced                                   : No
  29. Audio
  30. ID                                       : 2
  31. Format                                   : AC-3
  32. Format/Info                              : Audio Coding 3
  33. Commercial name                          : Dolby Digital
  34. Codec ID                                 : A_AC3
  35. Duration                                 : 2 h 7 min
  36. Bit rate mode                            : Constant
  37. Bit rate                                 : 640 kb/s
  38. Channel(s)                               : 6 channels
  39. Channel layout                           : L R C LFE Ls Rs
  40. Sampling rate                            : 48.0 kHz
  41. Frame rate                               : 31.250 FPS (1536 SPF)
  42. Compression mode                         : Lossy
  43. Stream size                              : 583 MiB (15%)
  44. Language                                 : Korean
  45. Service kind                             : Complete Main
  46. Default                                  : Yes
  47. Forced                                   : No
  48. Text #1
  49. ID                                       : 3
  50. Format                                   : PGS
  51. Muxing mode                              : zlib
  52. Codec ID                                 : S_HDMV/PGS
  53. Codec ID/Info                            : Picture based subtitle format used on BDs/HD-DVDs
  54. Duration                                 : 2 h 3 min
  55. Bit rate                                 : 20.5 kb/s
  56. Count of elements                        : 3766
  57. Stream size                              : 18.1 MiB (0%)
  58. Language                                 : Korean
  59. Default                                  : Yes
  60. Forced                                   : No
  61. Text #2
  62. ID                                       : 4
  63. Format                                   : PGS
  64. Muxing mode                              : zlib
  65. Codec ID                                 : S_HDMV/PGS
  66. Codec ID/Info                            : Picture based subtitle format used on BDs/HD-DVDs
  67. Duration                                 : 2 h 4 min
  68. Bit rate                                 : 18.2 kb/s
  69. Count of elements                        : 3705
  70. Stream size                              : 16.2 MiB (0%)
  71. Language                                 : English
  72. Default                                  : No
  73. Forced                                   : No
  74. Text #3
  75. ID                                       : 5
  76. Format                                   : PGS
  77. Muxing mode                              : zlib
  78. Codec ID                                 : S_HDMV/PGS
  79. Codec ID/Info                            : Picture based subtitle format used on BDs/HD-DVDs
  80. Duration                                 : 2 h 4 min
  81. Bit rate                                 : 16.2 kb/s
  82. Count of elements                        : 3202
  83. Stream size                              : 14.5 MiB (0%)
  84. Language                                 : Chinese
  85. Default                                  : No
  86. Forced                                   : No
  87. Text #4
  88. ID                                       : 6
  89. Format                                   : PGS
  90. Muxing mode                              : zlib
  91. Codec ID                                 : S_HDMV/PGS
  92. Codec ID/Info                            : Picture based subtitle format used on BDs/HD-DVDs
  93. Duration                                 : 2 h 4 min
  94. Bit rate                                 : 17.1 kb/s
  95. Count of elements                        : 3202
  96. Stream size                              : 15.3 MiB (0%)
  97. Language                                 : Chinese
  98. Default                                  : No
  99. Forced                                   : No
  100. Menu
  101. 00:00:00.000                             : en:Chapter 01
  102. 00:06:02.320                             : en:Chapter 02
  103. 00:11:57.633                             : en:Chapter 03
  104. 00:22:32.684                             : en:Chapter 04
  105. 00:32:34.035                             : en:Chapter 05
  106. 00:41:08.757                             : en:Chapter 06
  107. 00:49:07.194                             : en:Chapter 07
  108. 00:59:28.356                             : en:Chapter 08
  109. 01:08:59.009                             : en:Chapter 09
  110. 01:20:10.222                             : en:Chapter 10
  111. 01:24:31.608                             : en:Chapter 11
  112. 01:36:10.765                             : en:Chapter 12
  113. 01:44:18.627                             : en:Chapter 13
  114. 01:53:13.203                             : en:Chapter 14
  115. 01:59:39.589                             : en:Chapter 15
  116. 02:05:10.085                             : en:Chapter 16





此处一般会放置磁力链或种子下载链接,不过此链接需要注册会员才能看到,点击“立即注册”
磁力链下载【下载链接仅对注册会员开放,登陆后可见】
BT9527电影天堂 1、BT9527电影天堂提供的BT文件均来源于互联网抓取,只供网友学习交流、技术提升使用。
2、我们遵守BitTorrent点对点协议原则,任何版权问题请联系原资源发布商,我们不处理任何版权纠纷,谢谢!如有争议请联系邮箱:BT9527#hotmail.com(#换成@)
3、如果您发现某页面或地址有错误,请联系站长邮箱BT9527#hotmail.com(#换成@),我们会尽快处理。您的热心是对BT9527电影天堂最大的支持。
4、本站建议去正规影院观看电影以支持电影行业发展。
最新回复 (0)

你可以在 登录 or 注册 后,对此帖发表评论!

返回