终极斗士3:赎罪[中英字幕].Undisputed.3.Redemption.2010.BluRay.1080p.x265.10bit-MiniHD 3.58GB

版主小s 17天前 28

✔资源类型:暂未分类   ✔电影年份:2010   ✔电影地区:欧美   ✔电影分类:剧情

◎译  名 终极斗士3:赎罪 / 格斗之王 / 终极拳霸 / 笼中兽
◎片  名 Undisputed III: Redemption
◎年  代 2010
◎产  地 美国
◎类  别 剧情 / 动作 / 犯罪
◎语  言 英语 / 西班牙语 / 葡萄牙语
◎上映日期 2010-04-17(ActionFest)
◎IMDb链接 https://www.imdb.com/title/tt1156466/
◎豆瓣评分 7.9/10 (18952人评价)
◎豆瓣链接 https://movie.douban.com/subject/3012053/
◎片  长 96分钟
◎导  演 艾萨克·佛罗伦汀 Isaac Florentine (id:1319001)
◎编  剧 大卫·N·怀特 David N. White (id:1331141)
◎演  员 马克·扎罗 Marko Zaror (id:1018111)
       米凯尔·珊农·詹金斯 Mykel Shannon Jenkins (id:1112395)
       马克·伊瓦涅 Mark Ivanir (id:1105743)
       拉蒂夫·克劳德 Lateef Crowder (id:1169807)
       伊拉姆·崔 Ilram Choi (id:1189581)
       罗伯特·康斯坦佐 Robert Costanzo (id:1324331)
       斯科特·阿金斯 Scott Adkins (id:1017912)
       弗农·多布切夫 Vernon Dobtcheff (id:1022603)
       Minos Matsas Minos Matsas (id:1302991)

◎简  介
  犯人战士尤里?伯伊卡(Scott Adkins 饰)在上一集中膝盖受重伤,失去了搏击能力,只能在监狱中清理卫生,昔日的荣耀和战斗已离他远去,而监狱方面又驳回了他的假释要求,从不曾甘心失去自由的伯伊卡,将希望寄托在国际犯人格斗大赛上,因为大赛最终的冠军将获得自由。经过严酷的恢复性训练,伯伊卡战胜并取代了嘎卡(Mark Ivanir 饰)手下的参赛选手,两人再一次合作,前往格鲁吉亚境内的葛贡监狱,伯伊卡在那里将同世界各地的其他七名犯人战士,角逐出唯一的犯人格斗之王。                                    
                                参赛选手中,美国的特伯(Michael Shannon Jenkins 饰)和哥伦比亚的“杀人狂”各具实力,伯伊卡为了自由必须战胜他们,然而他很快发现,真正的敌人并不是搏击场中的对手……
  1. ##### MediaInfo ######
  2. General
  3. Unique ID                                : 238864109188429143229057331095529152046 (0xB3B38DD6631A1ADCA9CD34DE646D5E2E)
  4. Complete name                            : Undisputed.3.Redemption.2010.BluRay.1080p.x265.10bit-MiniHD.mkv
  5. Format                                   : Matroska
  6. Format version                           : Version 4
  7. File size                                : 3.58 GiB
  8. Duration                                 : 1 h 36 min
  9. Overall bit rate                         : 5 332 kb/s
  10. Encoded date                             : UTC 2017-08-08 01:08:31
  11. Writing application                      : mkvmerge v11.0.0 ('Alive') 64bit
  12. Writing library                          : libebml v1.3.4 + libmatroska v1.4.5
  13. Video
  14. ID                                       : 1
  15. Format                                   : HEVC
  16. Format/Info                              : High Efficiency Video Coding
  17. Codec ID                                 : V_MPEGH/ISO/HEVC
  18. Duration                                 : 1 h 36 min
  19. Bit rate                                 : 4 640 kb/s
  20. Width                                    : 1 920 pixels
  21. Height                                   : 1 080 pixels
  22. Display aspect ratio                     : 16:9
  23. Frame rate mode                          : Constant
  24. Frame rate                               : 23.976 (24000/1001/53354) FPS
  25. Bits/(Pixel*Frame)                       : 0.093
  26. Stream size                              : 3.11 GiB (87%)
  27. Default                                  : Yes
  28. Forced                                   : No
  29. Audio
  30. ID                                       : 2
  31. Format                                   : AC-3
  32. Format/Info                              : Audio Coding 3
  33. Commercial name                          : Dolby Digital
  34. Codec ID                                 : A_AC3
  35. Duration                                 : 1 h 36 min
  36. Bit rate mode                            : Constant
  37. Bit rate                                 : 640 kb/s
  38. Channel(s)                               : 6 channels
  39. Channel layout                           : L R C LFE Ls Rs
  40. Sampling rate                            : 48.0 kHz
  41. Frame rate                               : 31.250 FPS (1536 SPF)
  42. Compression mode                         : Lossy
  43. Stream size                              : 440 MiB (12%)
  44. Language                                 : English
  45. Service kind                             : Complete Main
  46. Default                                  : Yes
  47. Forced                                   : No
  48. Text #1
  49. ID                                       : 3
  50. Format                                   : PGS
  51. Muxing mode                              : zlib
  52. Codec ID                                 : S_HDMV/PGS
  53. Codec ID/Info                            : Picture based subtitle format used on BDs/HD-DVDs
  54. Duration                                 : 1 h 35 min
  55. Bit rate                                 : 9 186 b/s
  56. Count of elements                        : 1888
  57. Stream size                              : 6.28 MiB (0%)
  58. Language                                 : English
  59. Default                                  : Yes
  60. Forced                                   : No
  61. Text #2
  62. ID                                       : 4
  63. Format                                   : PGS
  64. Muxing mode                              : zlib
  65. Codec ID                                 : S_HDMV/PGS
  66. Codec ID/Info                            : Picture based subtitle format used on BDs/HD-DVDs
  67. Duration                                 : 1 h 31 min
  68. Bit rate                                 : 12.8 kb/s
  69. Count of elements                        : 1652
  70. Stream size                              : 8.38 MiB (0%)
  71. Language                                 : Chinese
  72. Default                                  : No
  73. Forced                                   : No
  74. Text #3
  75. ID                                       : 5
  76. Format                                   : PGS
  77. Muxing mode                              : zlib
  78. Codec ID                                 : S_HDMV/PGS
  79. Codec ID/Info                            : Picture based subtitle format used on BDs/HD-DVDs
  80. Duration                                 : 1 h 31 min
  81. Bit rate                                 : 13.2 kb/s
  82. Count of elements                        : 1652
  83. Stream size                              : 8.64 MiB (0%)
  84. Language                                 : Chinese
  85. Default                                  : No
  86. Forced                                   : No
  87. Text #4
  88. ID                                       : 6
  89. Format                                   : PGS
  90. Muxing mode                              : zlib
  91. Codec ID                                 : S_HDMV/PGS
  92. Codec ID/Info                            : Picture based subtitle format used on BDs/HD-DVDs
  93. Duration                                 : 1 h 32 min
  94. Bit rate                                 : 17.8 kb/s
  95. Count of elements                        : 1664
  96. Stream size                              : 11.8 MiB (0%)
  97. Language                                 : Chinese
  98. Default                                  : No
  99. Forced                                   : No
  100. Menu
  101. 00:00:00.000                             : en:00:00:00.000
  102. 00:11:31.230                             : en:00:11:31.230
  103. 00:19:26.454                             : en:00:19:26.454
  104. 00:28:14.275                             : en:00:28:14.275
  105. 00:40:06.695                             : en:00:40:06.695
  106. 00:49:29.340                             : en:00:49:29.340
  107. 01:01:16.463                             : en:01:01:16.463
  108. 01:12:28.844                             : en:01:12:28.844
  109. 01:25:33.336                             : en:01:25:33.336
  110. 01:32:27.082                             : en:01:32:27.082





此处一般会放置磁力链或种子下载链接,不过此链接需要注册会员才能看到,点击“立即注册”
磁力链下载【下载链接仅对注册会员开放,登陆后可见】
BT9527电影天堂 1、BT9527电影天堂提供的BT文件均来源于互联网抓取,只供网友学习交流、技术提升使用。
2、我们遵守BitTorrent点对点协议原则,任何版权问题请联系原资源发布商,我们不处理任何版权纠纷,谢谢!如有争议请联系邮箱:BT9527#hotmail.com(#换成@)
3、如果您发现某页面或地址有错误,请联系站长邮箱BT9527#hotmail.com(#换成@),我们会尽快处理。您的热心是对BT9527电影天堂最大的支持。
4、本站建议去正规影院观看电影以支持电影行业发展。
最新回复 (0)

你可以在 登录 or 注册 后,对此帖发表评论!

返回
发新帖