走到尽头[中英字幕].A.Hard.Day.2014.BluRay.1080p.x265.10bit-MiniHD 3.52GB

版主小s 3月前 274

✔资源类型:暂未分类   ✔电影年份:2014   ✔电影地区:韩国   ✔电影分类:动作

◎译  名 走到尽头 / 黑仔型警(港) / 非常警探(台) / 黑仔刑警 / 走到底 / A Hard Day
◎片  名 ??? ??
◎年  代 2014
◎产  地 韩国
◎类  别 动作 / 惊悚 / 犯罪
◎语  言 韩语
◎上映日期 2014-05-18(戛纳电影节) / 2014-05-29(韩国)
◎IMDb链接 https://www.imdb.com/title/tt3697626/
◎豆瓣评分 8.0/10 (82264人评价)
◎豆瓣链接 https://movie.douban.com/subject/25766529/
◎片  长 111分钟
◎导  演 金成勋 Seong-hoon Kim (id:1341016)
◎编  剧 金成勋 Seong-hoon Kim (id:1341016)
       张恒准 Hang-jun Zhang (id:1194220)
       李海俊 Hae-jun Lee (id:1342426)
◎演  员 李善均 Seon-gyun Lee (id:1275333)
       赵震雄 Cho Jin-woong (id:1322203)
       申正根 Jeong-geun Sin (id:1321885)
       郑满植 Man-shik Jeong (id:1327294)
       申东美 Dong-Mi Shin (id:1326130)
       金东英 Dong-yeong Kim (id:1362355)
       周锡泰 Suk-tae Joo (id:1375770)
       许廷恩 Jung-eun Heo (id:1386434)
       朴宝剑 Bo-Gum Park (id:1342125)
       李才元 Jea-woo Lee (id:1378859)
       奇周峯 Joo-bong Ki (id:1051277)
       南庆邑 Kyung-eup Nam (id:1380034)
       金海坤 Hae-gon Kim (id:1400152)
       宋英奎 Young-kyu Song (id:1375287)
       李知勋 Ji-Hoon Lee (id:1340602)
       李时宪 ??? (id:1390900)
       张宥 Sang-hee Lee (id:1448121)
       徐贤宇 Seo Hyeon-woo (id:1379938)
       张仁燮 In-sub Jang (id:1386578)
         (id:1337030)
       李胜浚 Seung joon Lee (id:1375756)
       白钟焕 Baek Jong-hwan (id:1386224)
       金昌洙 Chang-ju Kim (id:1308553)

◎简  介
  道貌岸然的水源警局警官高建洙(李善均 饰)正处在人生的危急关头,他的母亲不久前刚刚去世,警局方面因为和同事涉嫌受贿而被检察官调查,回家奔丧的路上速度过快又不慎撞死了人。高左右奔突,疲于奔命,最后以瞒天过海的方式逃过一劫。好不容易渡过危机的高和同事受命追查一个通缉犯,结果却发现对方正是自己撞到的人。雪上加霜的是,偏偏有人目击了车祸过程,并且匿名举报。之后不久,神秘之人(赵镇雄 饰)打来电话,直接道出高建洙撞到通缉犯的隐情。                                    
                                对方拥有和高警官同样体面的身份,而他反复纠缠这个惊弓之鸟背后又有怎样不可告人的目的?

◎获奖情况 (共23项)
  第35届韩国电影青龙奖 (2014)
  最佳影片(提名)
  最佳导演(提名)
   └──金成勋 (id:1341016)
  最佳男主角(提名)
   └──李善均 (id:1275333)
  最佳男配角
   └──赵震雄 (id:1322203)
  最佳剧本
   └──金成勋 (id:1341016)
  最佳摄影(提名)
  最佳剪辑
  最佳照明(提名)

  第9届亚洲电影大奖 (2015)
  最佳男配角(提名)
   └──赵震雄 (id:1322203)
  最佳编剧(提名)
   └──金成勋 (id:1341016)
  最佳剪接(提名)

  第51届百想艺术大赏 (2015)
  电影类 最佳影片(提名)
  电影类 最佳导演
   └──金成勋 (id:1341016)
  电影类 最佳男主角
  电影类 最佳编剧(提名)

  第51届韩国电影大钟奖 (2014)
  最佳影片(提名)
  最佳导演(提名)
   └──金成勋 (id:1341016)
  最佳男配角(提名)
   └──赵震雄 (id:1322203)
  最佳剧本(提名)
  最佳摄影(提名)
  最佳剪辑(提名)
  最佳照明(提名)

  第1届豆瓣电影年度榜单 (2014)
  评分最高的韩国电影(提名)

  1. ##### MediaInfo ######
  2. General
  3. Unique ID                                : 211729465206524120028518110716231082707 (0x9F499C995B4194F3A7B54AEAB136E2D3)
  4. Complete name                            : A.Hard.Day.2014.BluRay.1080p.x265.10bit-MiniHD.mkv
  5. Format                                   : Matroska
  6. Format version                           : Version 4
  7. File size                                : 3.52 GiB
  8. Duration                                 : 1 h 50 min
  9. Overall bit rate                         : 4 543 kb/s
  10. Encoded date                             : UTC 2017-03-30 07:36:25
  11. Writing application                      : mkvmerge v9.7.1 ('Pandemonium') 64bit
  12. Writing library                          : libebml v1.3.4 + libmatroska v1.4.5
  13. Video
  14. ID                                       : 1
  15. Format                                   : HEVC
  16. Format/Info                              : High Efficiency Video Coding
  17. Format profile                           : Main 10@L4@Main
  18. Codec ID                                 : V_MPEGH/ISO/HEVC
  19. Duration                                 : 1 h 50 min
  20. Bit rate                                 : 3 813 kb/s
  21. Width                                    : 1 920 pixels
  22. Height                                   : 816 pixels
  23. Display aspect ratio                     : 2.35:1
  24. Frame rate mode                          : Constant
  25. Frame rate                               : 23.976 (24000/1001/53354) FPS
  26. Color space                              : YUV
  27. Chroma subsampling                       : 4:2:0
  28. Bit depth                                : 10 bits
  29. Bits/(Pixel*Frame)                       : 0.101
  30. Stream size                              : 2.95 GiB (84%)
  31. Writing library                          : x265 2.3+24-a0eee4b41185:[Windows][GCC 6.3.0][64 bit] 10bit
  32. Encoding settings                        : cpuid=533541173503 / frame-threads=6 / numa-pools=36 / wpp / no-pmode / no-pme / no-psnr / no-ssim / log-level=2 / input-csp=1 / input-res=1920x816 / interlace=0 / total-frames=159486 / level-idc=0 / high-tier=1 / uhd-bd=0 / ref=5 / no-allow-non-conformance / no-repeat-headers / annexb / no-aud / no-hrd / info / hash=0 / no-temporal-layers / no-open-gop / min-keyint=1 / keyint=360 / bframes=8 / b-adapt=2 / b-pyramid / bframe-bias=0 / rc-lookahead=60 / lookahead-slices=4 / NTMzNTQ=uuDQuD2mJt9fsCf / scenecut=40 / no-intra-refresh / ctu=32 / min-cu-size=8 / rect / no-amp / max-tu-size=16 / tu-inter-depth=2 / tu-intra-depth=2 / limit-tu=4 / rdoq-level=2 / dynamic-rd=0.00 / signhide / no-tskip / nr-intra=0 / nr-inter=0 / no-constrained-intra / no-strong-intra-smoothing / max-merge=3 / limit-refs=2 / limit-modes / me=3 / subme=5 / merange=25 / temporal-mvp / weightp / weightb / no-analyze-src-pics / deblock=-1:-1 / no-sao / no-sao-non-deblock / rd=4 / no-early-skip / rskip / no-fast-intra / no-tskip-fast / no-cu-lossless / b-intra / rdpenalty=1 / psy-rd=0.00 / psy-rdoq=5.00 / no-rd-refine / analysis-mode=0 / no-lossless / cbqpoffs=-2 / crqpoffs=-2 / rc=crf / crf=18.0 / qcomp=0.70 / qpstep=4 / stats-write=0 / stats-read=0 / ipratio=1.40 / pbratio=1.30 / aq-mode=2 / aq-strength=0.80 / cutree / zone-count=0 / no-strict-cbr / qg-size=16 / no-rc-grain / qpmax=69 / qpmin=0 / sar=0 / overscan=0 / videoformat=5 / range=0 / colorprim=1 / transfer=2 / colormatrix=2 / chromaloc=0 / display-window=0 / max-cll=0,0 / min-luma=0 / max-luma=1023 / log2-max-poc-lsb=8 / vui-timing-info / vui-hrd-info / slices=1 / opt-qp-pps / opt-ref-list-length-pps / no-multi-pass-opt-rps / scenecut-bias=0.05 / no-opt-cu-delta-qp / no-aq-motion / no-hdr / no-hdr-opt / refine-level=5
  33. Default                                  : Yes
  34. Forced                                   : No
  35. Color range                              : Limited
  36. Color primaries                          : BT.709
  37. Audio
  38. ID                                       : 2
  39. Format                                   : AC-3
  40. Format/Info                              : Audio Coding 3
  41. Commercial name                          : Dolby Digital
  42. Codec ID                                 : A_AC3
  43. Duration                                 : 1 h 50 min
  44. Bit rate mode                            : Constant
  45. Bit rate                                 : 640 kb/s
  46. Channel(s)                               : 6 channels
  47. Channel layout                           : L R C LFE Ls Rs
  48. Sampling rate                            : 48.0 kHz
  49. Frame rate                               : 31.250 FPS (1536 SPF)
  50. Compression mode                         : Lossy
  51. Stream size                              : 507 MiB (14%)
  52. Language                                 : Korean
  53. Service kind                             : Complete Main
  54. Default                                  : Yes
  55. Forced                                   : No
  56. Text #1
  57. ID                                       : 3
  58. Format                                   : PGS
  59. Muxing mode                              : zlib
  60. Codec ID                                 : S_HDMV/PGS
  61. Codec ID/Info                            : Picture based subtitle format used on BDs/HD-DVDs
  62. Language                                 : English
  63. Default                                  : Yes
  64. Forced                                   : No
  65. Text #2
  66. ID                                       : 4
  67. Format                                   : PGS
  68. Muxing mode                              : zlib
  69. Codec ID                                 : S_HDMV/PGS
  70. Codec ID/Info                            : Picture based subtitle format used on BDs/HD-DVDs
  71. Language                                 : Chinese
  72. Default                                  : No
  73. Forced                                   : No
  74. Text #3
  75. ID                                       : 5
  76. Format                                   : PGS
  77. Muxing mode                              : zlib
  78. Codec ID                                 : S_HDMV/PGS
  79. Codec ID/Info                            : Picture based subtitle format used on BDs/HD-DVDs
  80. Language                                 : Chinese
  81. Default                                  : No
  82. Forced                                   : No
  83. Text #4
  84. ID                                       : 6
  85. Format                                   : PGS
  86. Muxing mode                              : zlib
  87. Codec ID                                 : S_HDMV/PGS
  88. Codec ID/Info                            : Picture based subtitle format used on BDs/HD-DVDs
  89. Language                                 : Chinese
  90. Default                                  : No
  91. Forced                                   : No
  92. Menu
  93. 00:00:00.000                             : en:Chapter 01
  94. 00:11:52.253                             : en:Chapter 02
  95. 00:20:23.972                             : en:Chapter 03
  96. 00:29:35.273                             : en:Chapter 04
  97. 00:34:21.559                             : en:Chapter 05
  98. 00:44:03.349                             : en:Chapter 06
  99. 00:56:15.080                             : en:Chapter 07
  100. 01:02:35.293                             : en:Chapter 08
  101. 01:13:21.605                             : en:Chapter 09
  102. 01:24:16.634                             : en:Chapter 10
  103. 01:31:11.382                             : en:Chapter 11
  104. 01:45:13.223                             : en:Chapter 12





此处一般会放置磁力链或种子下载链接,不过此链接需要注册会员才能看到,点击“立即注册”
磁力链下载【下载链接仅对注册会员开放,登陆后可见】
BT9527电影天堂 1、BT9527电影天堂提供的BT文件均来源于互联网抓取,只供网友学习交流、技术提升使用。
2、我们遵守BitTorrent点对点协议原则,任何版权问题请联系原资源发布商,我们不处理任何版权纠纷,谢谢!如有争议请联系邮箱:BT9527#hotmail.com(#换成@)
3、如果您发现某页面或地址有错误,请联系站长邮箱BT9527#hotmail.com(#换成@),我们会尽快处理。您的热心是对BT9527电影天堂最大的支持。
4、本站建议去正规影院观看电影以支持电影行业发展。
最新回复 (0)

你可以在 登录 or 注册 后,对此帖发表评论!

返回
发新帖