终极斗士2[中英字幕].Undisputed.2.Last.Man.Standing.2006.BluRay.1080p.x265.10bit-MiniHD 4.89GB

版主小s 3月前 164

✔资源类型:暂未分类   ✔电影年份:2006   ✔电影地区:欧美   ✔电影分类:剧情

◎译  名 终极斗士2 / 绝地斗士
◎片  名 Undisputed II: Last Man Standing
◎年  代 2006
◎产  地 美国
◎类  别 剧情 / 动作 / 犯罪 / 运动
◎语  言 英语
◎上映日期 2006-04-11
◎IMDb链接 https://www.imdb.com/title/tt0443676/
◎豆瓣评分 7.5/10 (9419人评价)
◎豆瓣链接 https://movie.douban.com/subject/1759849/
◎片  长 98 分钟
◎导  演 艾萨克·佛罗伦汀 Isaac Florentine (id:1319001)
◎编  剧 博兹·大卫逊 Boaz Davidson (id:1040974)
       James Townsend James Townsend (id:1190758)
       大卫·N·怀特 David N. White (id:1331141)
◎演  员 尼古拉·索蒂罗夫 Nikolai Sotirov (id:1151274)
       斯科特·阿金斯 Scott Adkins (id:1017912)
       本·克劳斯 Ben Cross (id:1036525)
       迈克尔·加·怀特 Michael Jai White (id:1040509)
       沃利扎·比尼夫 Velizar Binev (id:1067224)
       Maria Ilieva Maria Ilieva (id:1209878)
       瓦伦丁·加内夫 Valentin Ganev (id:1097421)
       阿塔纳斯·斯雷布雷夫 Atanas Srebrev (id:1195460)
       马克·伊瓦涅 Mark Ivanir (id:1105743)
       丹柯·约尔丹诺夫 Danko Jordanov (id:1190569)
       拉多斯拉夫·巴瓦诺夫 Radoslav Parvanov (id:1186587)
       Daisy Lang Daisy Lang (id:1183483)
       莱乔·瓦斯列夫 Raicho Vasilev (id:1154553)
       西尔维奥·西马克 Silvio Simac (id:1145385)
       Stanimir Stamatov Stanimir Stamatov (id:1151463)
       约翰·汤普森 John Thompson (id:1299184)
       艾威·勒纳 Avi Lerner (id:1027972)
       凯文·卡沙 Kevin Kasha (id:1045795)
       博兹·大卫逊 Boaz Davidson (id:1040974)
       罗斯·W·克拉克森 Ross W. Clarkson (id:1015005)
       Valentina Mladenova Valentina Mladenova (id:1052785)
       J·J·佩里 J.J. Perry (id:1294335)
       Peter Mechkoff Peter Mechkoff (id:1195806)
       Shero Rauf Shero Rauf (id:1212441)

◎简  介
  昔日的重量级拳击冠军乔治(迈克尔?加?怀特 Michael Jai White 饰)在俄罗斯拍摄广告度日,某天他的家被人闯入后放置了大量毒品,于是乔治因贩毒入狱。这场陷害的幕后主使是俄罗斯当地的黑拳界,他们利用犯人们的搏击比赛开设赌局,而乔治出色的身后令他成为了监狱的目标,各方希望乔治能与狱中拳王伯伊卡(斯科特?阿金斯 Scott Adkins 饰)一战。                                    
                                拒绝成为黑拳界谋利工具的乔治在狱中处境艰难,除了狱警的侮辱,伯伊卡一众也不放弃任何挑衅乔治的机会,当乔治发现自己除了登上擂台已没有任何获得自由的可能以后,他毅然决定与伯伊卡决斗。然而拥有凌厉腿法的伯伊卡并不是一个低级的对手……
  1. ##### MediaInfo ######
  2. General
  3. Unique ID                                : 209812539619996832430987963938087323083 (0x9DD86CDEE6CF5E44889384966A8F45CB)
  4. Complete name                            : Undisputed.2.Last.Man.Standing.2006.BluRay.1080p.x265.10bit-MiniHD.mkv
  5. Format                                   : Matroska
  6. Format version                           : Version 4
  7. File size                                : 4.89 GiB
  8. Duration                                 : 1 h 37 min
  9. Overall bit rate                         : 7 167 kb/s
  10. Encoded date                             : UTC 2017-08-07 11:51:35
  11. Writing application                      : mkvmerge v11.0.0 ('Alive') 64bit
  12. Writing library                          : libebml v1.3.4 + libmatroska v1.4.5
  13. Video
  14. ID                                       : 1
  15. Format                                   : HEVC
  16. Format/Info                              : High Efficiency Video Coding
  17. Codec ID                                 : V_MPEGH/ISO/HEVC
  18. Duration                                 : 1 h 37 min
  19. Bit rate                                 : 6 492 kb/s
  20. Width                                    : 1 920 pixels
  21. Height                                   : 1 038 pixels
  22. Display aspect ratio                     : 1.85:1
  23. Frame rate mode                          : Constant
  24. Frame rate                               : 23.976 (24000/1001/53354) FPS
  25. Bits/(Pixel*Frame)                       : 0.136
  26. Stream size                              : 4.43 GiB (91%)
  27. Default                                  : Yes
  28. Forced                                   : No
  29. Audio
  30. ID                                       : 2
  31. Format                                   : AC-3
  32. Format/Info                              : Audio Coding 3
  33. Commercial name                          : Dolby Digital
  34. Codec ID                                 : A_AC3
  35. Duration                                 : 1 h 37 min
  36. Bit rate mode                            : Constant
  37. Bit rate                                 : 640 kb/s
  38. Channel(s)                               : 6 channels
  39. Channel layout                           : L R C LFE Ls Rs
  40. Sampling rate                            : 48.0 kHz
  41. Frame rate                               : 31.250 FPS (1536 SPF)
  42. Compression mode                         : Lossy
  43. Stream size                              : 447 MiB (9%)
  44. Language                                 : English
  45. Service kind                             : Complete Main
  46. Default                                  : Yes
  47. Forced                                   : No
  48. Text #1
  49. ID                                       : 3
  50. Format                                   : PGS
  51. Muxing mode                              : zlib
  52. Codec ID                                 : S_HDMV/PGS
  53. Codec ID/Info                            : Picture based subtitle format used on BDs/HD-DVDs
  54. Duration                                 : 1 h 34 min
  55. Bit rate                                 : 14.5 kb/s
  56. Count of elements                        : 2752
  57. Stream size                              : 9.85 MiB (0%)
  58. Language                                 : English
  59. Default                                  : Yes
  60. Forced                                   : No
  61. Text #2
  62. ID                                       : 4
  63. Format                                   : PGS
  64. Muxing mode                              : zlib
  65. Codec ID                                 : S_HDMV/PGS
  66. Codec ID/Info                            : Picture based subtitle format used on BDs/HD-DVDs
  67. Duration                                 : 1 h 31 min
  68. Bit rate                                 : 9 587 b/s
  69. Count of elements                        : 1672
  70. Stream size                              : 6.31 MiB (0%)
  71. Language                                 : Chinese
  72. Default                                  : No
  73. Forced                                   : No
  74. Text #3
  75. ID                                       : 5
  76. Format                                   : PGS
  77. Muxing mode                              : zlib
  78. Codec ID                                 : S_HDMV/PGS
  79. Codec ID/Info                            : Picture based subtitle format used on BDs/HD-DVDs
  80. Duration                                 : 1 h 31 min
  81. Bit rate                                 : 9 904 b/s
  82. Count of elements                        : 1672
  83. Stream size                              : 6.52 MiB (0%)
  84. Language                                 : Chinese
  85. Default                                  : No
  86. Forced                                   : No
  87. Menu
  88. 00:00:00.000                             : en:Maximum Security
  89. 00:12:48.893                             : en:This Evening's Bout
  90. 00:20:02.118                             : en:They Set Me Up
  91. 00:26:09.067                             : en:Better Get Up
  92. 00:30:53.351                             : en:In the Ring
  93. 00:39:56.936                             : en:Making a Point
  94. 00:48:14.058                             : en:A Message
  95. 00:52:31.648                             : en:No Choice
  96. 00:58:56.533                             : en:Drugged
  97. 01:03:05.907                             : en:The Next Stage
  98. 01:11:07.305                             : en:We Had a Deal
  99. 01:15:51.464                             : en:Street Fighting
  100. 01:19:19.755                             : en:Training
  101. 01:21:45.567                             : en:The Re-Match
  102. 01:28:16.625                             : en:Harder
  103. 01:34:01.219                             : en:End Credits





此处一般会放置磁力链或种子下载链接,不过此链接需要注册会员才能看到,点击“立即注册”
磁力链下载【下载链接仅对注册会员开放,登陆后可见】
BT9527电影天堂 1、BT9527电影天堂提供的BT文件均来源于互联网抓取,只供网友学习交流、技术提升使用。
2、我们遵守BitTorrent点对点协议原则,任何版权问题请联系原资源发布商,我们不处理任何版权纠纷,谢谢!如有争议请联系邮箱:BT9527#hotmail.com(#换成@)
3、如果您发现某页面或地址有错误,请联系站长邮箱BT9527#hotmail.com(#换成@),我们会尽快处理。您的热心是对BT9527电影天堂最大的支持。
4、本站建议去正规影院观看电影以支持电影行业发展。
最新回复 (0)

你可以在 登录 or 注册 后,对此帖发表评论!

返回
发新帖