釜山行2:半岛[杜比视界版本][中英字幕].Train.to.Busan.Presents.Peninsula.2020.BluRay.2160p.x265.DoVi-MiniHD 18.08GB

版主小s 17天前 136

✔资源类型:BD-4K   ✔电影年份:2020   ✔电影地区:韩国   ✔电影分类:动作

◎译  名 釜山行2:半岛 / 釜山行2 / 半岛 / 尸杀半岛(港) / 尸速列车:感染半岛(台) / Peninsula / Train to Busan 2
◎片  名 ???2-??
◎年  代 2020
◎产  地 韩国
◎类  别 动作 / 惊悚 / 恐怖
◎语  言 韩语 / 英语 / 粤语
◎上映日期 2020-07-15(韩国)
◎IMDb链接 https://www.imdb.com/title/tt8850222/
◎豆瓣评分 5.1/10 (118258人评价)
◎豆瓣链接 https://movie.douban.com/subject/30299515/
◎片  长 115分钟
◎导  演 延尚昊 Sang-ho Yeon (id:1322175)
◎编  剧 延尚昊 Sang-ho Yeon (id:1322175)
◎演  员 姜栋元 Dong-won Kang (id:1211334)
       李贞贤 Jung-hyun Lee (id:1033233)
       权海骁 Hae-hyo Kwon (id:1043692)
       李来 Re Lee (id:1336326)
       金敏载 Kim Min-jae (id:1381255)
       具教焕 Gu Kyohwan (id:1363439)
       金度允 Do-yoon Kim (id:1379543)
       李艺媛 Ye-won Lee (id:1385234)
       张素妍 So-yeon Jang (id:1371638)
       文宇振 Woo-jin Moon (id:1385188)
       丹尼尔·乔伊·奥尔布赖特 Daniel Joey Albright (id:1381283)
       车始元 Cha Shi Won (id:1449117)
       Pierce Conran  Pierce Conran (id:1449118)
       特莉·多蒂 Terri Doty (id:1449119)
       金丹菲 Dan-bi Kim (id:1445019)
       金圭白 Kim Kyu Baek (id:1453701)
       金哲允 Cheol-yoon Kim (id:1391494)
       许明行 Heo Myeong Haeng (id:1467965)
       权泰浩 Tae-ho Kwon (id:1456752)

◎简  介
  上集列车驶往釜山后,丧尸病毒瞬间全国爆发,4年后的韩国尸毒遍野,被全球孤立,沦为死城。所馀无几的生还者踏上最后一艘难民船,离开被世人遗弃的朝鲜半岛。退伍军人正锡(姜栋元 饰)和家人有幸登上难民船,但一上船便发现丧尸潜伏,幸得香港收容,这批韩国人才得以上岸,以「半岛难民」身分在香港重新生活。但正锡受不住金钱诱惑,加入了一个回国窃取巨额美金的行动。他和队友重返韩国,竟然发现仍有一班未受尸毒感染的人在挣扎求存,正锡决定带这班倖存者逃生,他们最后能否成功逃出尸杀半岛?

◎获奖情况 (共10项)
  第73届戛纳电影节 (2020)
  入选过戛纳导演作品(提名)

  第41届韩国电影青龙奖 (2020)
  最佳导演(提名)
   └──延尚昊 (id:1322175)
  最佳女配角(提名)
   └──李来 (id:1336326)
  最佳美术(提名)
  最佳照明(提名)
  技术奖(提名)

  第57届百想艺术大赏 (2021)
  电影类 最佳男配角(提名)
   └──具教焕 (id:1363439)
  电影类 最佳女配角(提名)
   └──李来 (id:1336326)
  电影类 最佳新人男演员(提名)
   └──金度允 (id:1379543)
  电影类 最佳艺术奖(提名)

  1. ##### MediaInfo ######
  2. General
  3. ID                                       : 1 (0x1)
  4. Complete name                            : Train.to.Busan.Presents.Peninsula.2020.BluRay.2160p.x265.DoVi-MiniHD
  5. Format                                   : BDAV
  6. Format/Info                              : Blu-ray Video
  7. File size                                : 18.1 GiB
  8. Duration                                 : 1 h 55 min
  9. Overall bit rate mode                    : Variable
  10. Overall bit rate                         : 22.3 Mb/s
  11. Maximum Overall bit rate                 : 35.5 Mb/s
  12. FileExtension_Invalid                    : m2ts mts ssif
  13. Video
  14. ID                                       : 4117 (0x1015)
  15. Menu ID                                  : 1 (0x1)
  16. Format                                   : HEVC
  17. Format/Info                              : High Efficiency Video Coding
  18. Format profile                           : Main 10@L5.1@High
  19. HDR format                               : Dolby Vision, Version 1.0, dvhe.08.06, BL+RPU / SMPTE ST 2086, HDR10 compatible
  20. Codec ID                                 : 36
  21. Duration                                 : 1 h 55 min
  22. Bit rate                                 : 20.8 Mb/s
  23. Width                                    : 3 840 pixels
  24. Height                                   : 1 604 pixels
  25. Display aspect ratio                     : 2.40:1
  26. Frame rate                               : 24.000 FPS
  27. Color space                              : YUV
  28. Chroma subsampling                       : 4:2:0
  29. Bit depth                                : 10 bits
  30. Bits/(Pixel*Frame)                       : 0.141
  31. Stream size                              : 16.8 GiB (93%)
  32. Writing library                          : x265 3.3+3-g8f8e332f1+29:[Windows][#Erg`Djh#][@Yuuki] made by @Dongfangbubai
  33. Encoding settings                        : rc=crf / crf=18.0000 / qcomp=0.70 / qpstep=4 / stats-write=0 / stats-read=0 / vbv-maxrate=160000 / vbv-bufsize=160000 / vbv-init=0.9 / crf-max=0.0 / crf-min=0.0 / no-lossless / no-cu-lossless / aq-mode=3 / aq-strength=0.80 / cbqpoffs=-3 / crqpoffs=-3 / ipratio=1.40 / pbratio=1.30 / psy-rd=2.00 / psy-rdoq=3.00 / deblock=-1:-1 / ref=5 / limit-refs=0 / no-limit-modes / bframes=8 / b-adapt=2 / bframe-bias=0 / b-pyramid / b-intra / weightp / weightb / min-keyint=24 / max-keyint=240 / rc-lookahead=60 / gop-lookahead=0 / NTMzNTQ=uuDQuD2mJt9fsCf / scenecut=40 / hist-scenecut=0 / radl=0 / max-cu-size=32 / min-cu-size=8 / me=3 / subme=4 / merange=25 / rdoq-level=2 / rd=4 / rdpenalty=1 / dynamic-rd=0.00 / no-rd-refine / ----- / no-cutree / no-sao / rect / no-amp / no-open-gop / wpp / pmode / pme / no-psnr / no-ssim / nr-intra=0 / nr-inter=0 / no-constrained-intra / no-strong-intra-smoothing / max-tu-size=32 / tu-inter-depth=2 / tu-intra-depth=2 / limit-tu=0 / qg-size=32 / qpmax=69 / qpmin=0 / ----- / cpuid=533541176575 / frame-threads=6 / numa-pools=54,- / log-level=2 / input-csp=1 / input-res=3840x1604 / interlace=0 / level-idc=0 / high-tier=1 / uhd-bd=0 / no-allow-non-conformance / repeat-headers / aud / hrd / info / hash=0 / no-temporal-layers / lookahead-slices=0 / no-splice / no-intra-refresh / no-ssim-rd / signhide / no-tskip / max-merge=3 / temporal-mvp / no-frame-dup / no-hme / no-analyze-src-pics / no-sao-non-deblock / selective-sao=0 / no-early-skip / no-rskip / no-fast-intra / no-tskip-fast / no-splitrd-skip / zone-count=0 / no-strict-cbr / no-rc-grain / no-const-vbv / sar=0 / overscan=0 / videoformat=5 / range=0 / colorprim=9 / transfer=16 / colormatrix=9 / chromaloc=0 / display-window=0 / master-display=G(13250,34500)B(7500,3000)R(34000,16000)WP(15635,16450)L(10000000,1) / cll=650,621 / min-luma=0 / max-luma=1023 / log2-max-poc-lsb=8 / vui-timing-info / vui-hrd-info / slices=1 / no-opt-qp-pps / no-opt-ref-list-length-pps / no-multi-pass-opt-rps / scenecut-bias=0.05 / hist-threshold=0.01 / no-opt-cu-delta-qp / no-aq-motion / hdr10 / hdr10-opt / no-dhdr10-opt / no-idr-recovery-sei / analysis-reuse-level=0 / analysis-save-reuse-level=0 / analysis-load-reuse-level=0 / scale-factor=0 / refine-intra=0 / refine-inter=0 / refine-mv=1 / refine-ctu-distortion=0 / no-limit-sao / ctu-info=0 / no-lowpass-dct / refine-analysis-type=0 / copy-pic=1 / max-ausize-factor=1.0 / no-dynamic-refine / no-single-sei / no-hevc-aq / no-svt / no-field / qp-adaptation-range=1.00 / no-scenecut-aware-qpconformance-window-offsets / right=0 / bottom=0 / NTMzNTQ=
  34. Color range                              : Limited
  35. Color primaries                          : BT.2020
  36. Transfer characteristics                 : PQ
  37. Matrix coefficients                      : BT.2020 non-constant
  38. Mastering display color primaries        : Display P3
  39. Mastering display luminance              : min: 0.0001 cd/m2, max: 1000 cd/m2
  40. Maximum Content Light Level              : 650 cd/m2
  41. Maximum Frame-Average Light Level        : 621 cd/m2
  42. Audio
  43. ID                                       : 4352 (0x1100)
  44. Menu ID                                  : 1 (0x1)
  45. Format                                   : AC-3 MLP FBA 16-ch
  46. Format/Info                              : Audio Coding 3 + Meridian Lossless Packing FBA with 16-channel presentation
  47. Commercial name                          : Dolby TrueHD with Dolby Atmos
  48. Muxing mode                              : Stream extension
  49. Codec ID                                 : 131
  50. Duration                                 : 1 h 55 min
  51. Bit rate mode                            : Variable
  52. Bit rate                                 : 640 kb/s
  53. Maximum bit rate                         : 7 755 kb/s
  54. Channel(s)                               : 8 channels
  55. Channel layout                           : L R C LFE Ls Rs Lb Rb
  56. Sampling rate                            : 48.0 kHz
  57. Frame rate                               : 31.250 FPS (1536 SPF)
  58. Compression mode                         : Lossy
  59. Stream size                              : 531 MiB (3%)
  60. Language                                 : Korean
  61. Service kind                             : Complete Main
  62. Number of dynamic objects                : 11
  63. Bed channel count                        : 1 channel
  64. Bed channel configuration                : LFE
  65. Text #1
  66. ID                                       : 4768 (0x12A0)
  67. Menu ID                                  : 1 (0x1)
  68. Format                                   : PGS
  69. Codec ID                                 : 144
  70. Language                                 : English
  71. Text #2
  72. ID                                       : 4769 (0x12A1)
  73. Menu ID                                  : 1 (0x1)
  74. Format                                   : PGS
  75. Codec ID                                 : 144
  76. Language                                 : English
  77. Text #3
  78. ID                                       : 4770 (0x12A2)
  79. Menu ID                                  : 1 (0x1)
  80. Format                                   : PGS
  81. Codec ID                                 : 144
  82. Language                                 : Chinese
  83. Text #4
  84. ID                                       : 4771 (0x12A3)
  85. Menu ID                                  : 1 (0x1)
  86. Format                                   : PGS
  87. Codec ID                                 : 144
  88. Language                                 : Chinese





此处一般会放置磁力链或种子下载链接,不过此链接需要注册会员才能看到,点击“立即注册”
磁力链下载【下载链接仅对注册会员开放,登陆后可见】
BT9527电影天堂 1、BT9527电影天堂提供的BT文件均来源于互联网抓取,只供网友学习交流、技术提升使用。
2、我们遵守BitTorrent点对点协议原则,任何版权问题请联系原资源发布商,我们不处理任何版权纠纷,谢谢!如有争议请联系邮箱:BT9527#hotmail.com(#换成@)
3、如果您发现某页面或地址有错误,请联系站长邮箱BT9527#hotmail.com(#换成@),我们会尽快处理。您的热心是对BT9527电影天堂最大的支持。
4、本站建议去正规影院观看电影以支持电影行业发展。
最新回复 (0)

你可以在 登录 or 注册 后,对此帖发表评论!

返回
发新帖