绝命时钟2:22[中文字幕].2.22.2017.1080p.BDRip.HEVC.10bit.opus-MiniHD 1.64GB

版主小s 17天前 23

✔资源类型:暂未分类   ✔电影年份:2017   ✔电影地区:欧美   ✔电影分类:爱情

◎译  名 绝命时钟2:22
◎片  名 2:22
◎年  代 2017
◎产  地 美国 / 澳大利亚
◎类  别 爱情 / 惊悚
◎语  言 英语
◎上映日期 2018-01-26(中国大陆) / 2017-06-30(美国)
◎IMDb链接 https://www.imdb.com/title/tt1131724/
◎豆瓣评分 5.7/10 (7633人评价)
◎豆瓣链接 https://movie.douban.com/subject/2338070/
◎片  长 98分钟
◎导  演 保罗·柯瑞 Paul Currie (id:1281627)
◎编  剧 托德·斯坦因 Todd Stein (id:1377110)
       内森·帕克 Nathan Parker (id:1312056)
◎演  员 泰莉莎·帕尔墨 Teresa Palmer (id:1031836)
       米希尔·赫伊斯曼 Michiel Huisman (id:1009362)
       萨姆·里德 Sam Reid (id:1326598)
       梅芙·德莫迪 Maeve Dermody (id:1318326)
       约翰·沃特斯 John Waters (id:1165309)
       瑞米·许 Remy Hii (id:1332456)
       西蒙娜·凯塞尔 Simone Kessell (id:1377112)
       凯瑞·阿姆斯特朗 Kerry Armstrong (id:1059786)
       凯蒂·麦康奈尔 Katie McConnell (id:1377113)
       杰西卡·克拉克 Jessica Clarke (id:1377114)
       玛丽莎·拉蒙尼卡 Marisa Lamonica (id:1377116)
       理查德·戴维斯 Richard Davies (id:1354243)
       扎拉·迈克尔斯 Zara Michales (id:1377117)
       安吉·特里克 Angie Tricker (id:1377118)
       卡玛·莎伦 Carma Sharon (id:1377119)
       米切尔·巴特尔 Mitchell Butel (id:1279745)
       罗伯托·奥奇 Roberto Orci (id:1009508)
       艾里克斯·库兹曼 Alex Kurtzman (id:1049959)
       丽兹·加德纳 Lizzy Gardiner (id:1284553)

◎简  介
  有严格作息规律的男主角迪伦(米契尔·哈思曼 Michiel Huisman 饰)有一种天生的洞察规律的能力,某日下午2时22分,身为航空管制员迪伦·布兰森被神秘光亮所麻痹,而这差点让他指挥的飞机失事。从此他每天都会感受到这光亮,渐渐发现自己身处某种循环之中。一次非常偶然的机会,迪伦遇见了让他一见钟情的莎拉(泰莉莎·帕尔墨 Teresa Palmer 饰),二人聊天惊讶发现,莎拉就是迪伦差点酿成飞行事故的航班乘客,非常巧合的是他们同年同月同日出生。随着二人的了解深入,迪伦与莎拉的巧合也越来越多,频繁出现的幻觉与不断循环的事件将二人的命运与三十年前发生在纽约中央车站一起情杀案联系在一起,迪伦一直探究“2:22”背后的秘密,发现三十年前的凶杀案即将重演。
  1. ##### MediaInfo ######
  2. General
  3. Unique ID                                : 208092120199797633307811643084077656276 (0x9C8D15A4F676DEB797127A577A65E8D4)
  4. Complete name                            : 绝命时钟.2.22.2017.1080p.BDRip.HEVC.10bit.opus-MiniHD.mkv
  5. Format                                   : Matroska
  6. Format version                           : Version 4
  7. File size                                : 1.64 GiB
  8. Duration                                 : 1 h 38 min
  9. Overall bit rate                         : 2 373 kb/s
  10. Encoded date                             : UTC 2017-09-20 04:38:44
  11. Writing application                      : mkvmerge v9.7.1 ('Pandemonium') 64bit
  12. Writing library                          : libebml v1.3.4 + libmatroska v1.4.5
  13. Video
  14. ID                                       : 1
  15. Format                                   : HEVC
  16. Format/Info                              : High Efficiency Video Coding
  17. Format profile                           : Main 10@L4@High
  18. Codec ID                                 : V_MPEGH/ISO/HEVC
  19. Duration                                 : 1 h 38 min
  20. Bit rate                                 : 2 120 kb/s
  21. Width                                    : 1 920 pixels
  22. Height                                   : 800 pixels
  23. Display aspect ratio                     : 2.40:1
  24. Frame rate mode                          : Constant
  25. Frame rate                               : 23.976 (24000/1001/53354) FPS
  26. Color space                              : YUV
  27. Chroma subsampling                       : 4:2:0
  28. Bit depth                                : 10 bits
  29. Bits/(Pixel*Frame)                       : 0.058
  30. Stream size                              : 1.46 GiB (89%)
  31. Writing library                          : x265 2.5+12-fcd9154fa4e2:[Linux][GCC 5.4.0][64 bit] 10bit
  32. Encoding settings                        : cpuid=533541049087 / frame-threads=4 / numa-pools=24 / wpp / no-pmode / no-pme / no-psnr / no-ssim / log-level=2 / input-csp=1 / input-res=1920x800 / interlace=0 / total-frames=0 / level-idc=0 / high-tier=1 / uhd-bd=0 / ref=4 / no-allow-non-conformance / no-repeat-headers / annexb / no-aud / no-hrd / info / hash=0 / no-temporal-layers / no-open-gop / min-keyint=1 / keyint=1200 / bframes=8 / b-adapt=2 / b-pyramid / bframe-bias=0 / rc-lookahead=30 / lookahead-slices=4 / NTMzNTQ=uuDQuD2mJt9fsCf / scenecut=40 / no-intra-refresh / ctu=64 / min-cu-size=8 / no-rect / no-amp / max-tu-size=32 / tu-inter-depth=2 / tu-intra-depth=2 / limit-tu=4 / rdoq-level=2 / dynamic-rd=0.00 / no-ssim-rd / signhide / no-tskip / nr-intra=0 / nr-inter=0 / no-constrained-intra / no-strong-intra-smoothing / max-merge=3 / limit-refs=2 / limit-modes / me=3 / subme=3 / merange=36 / temporal-mvp / weightp / weightb / no-analyze-src-pics / deblock=0:0 / no-sao / no-sao-non-deblock / rd=6 / no-early-skip / rskip / no-fast-intra / no-tskip-fast / no-cu-lossless / b-intra / no-splitrd-skip / rdpenalty=0 / psy-rd=2.00 / psy-rdoq=1.00 / no-rd-refine / analysis-reuse-mode=0 / no-lossless / cbqpoffs=0 / crqpoffs=0 / rc=crf / crf=21.0 / qcomp=0.70 / qpstep=4 / stats-write=0 / stats-read=0 / vbv-maxrate=18000 / vbv-bufsize=18000 / vbv-init=0.9 / crf-max=0.0 / crf-min=0.0 / ipratio=1.40 / pbratio=1.30 / aq-mode=2 / aq-strength=1.00 / cutree / zone-count=0 / no-strict-cbr / qg-size=32 / no-rc-grain / qpmax=69 / qpmin=0 / no-const-vbv / sar=0 / overscan=0 / videoformat=5 / range=0 / colorprim=1 / transfer=2 / colormatrix=2 / chromaloc=0 / display-window=0 / max-cll=0,0 / min-luma=0 / max-luma=1023 / log2-max-poc-lsb=8 / vui-timing-info / vui-hrd-info / slices=1 / opt-qp-pps / opt-ref-list-length-pps / no-multi-pass-opt-rps / scenecut-bias=0.05 / no-opt-cu-delta-qp / no-aq-motion / no-hdr / no-hdr-opt / no-dhdr10-opt / analysis-reuse-level=5 / scale-factor=0 / refine-intra=0 / refine-inter=0 / refine-mv=0 / no-limit-sao / ctu-info=0
  33. Language                                 : English
  34. Default                                  : Yes
  35. Forced                                   : No
  36. Color range                              : Limited
  37. Color primaries                          : BT.709
  38. Audio
  39. ID                                       : 2
  40. Format                                   : Opus
  41. Codec ID                                 : A_OPUS
  42. Duration                                 : 1 h 38 min
  43. Bit rate                                 : 251 kb/s
  44. Channel(s)                               : 6 channels
  45. Channel layout                           : L R C Ls Rs Cb LFE
  46. Sampling rate                            : 48.0 kHz
  47. Frame rate                               : 50.000 FPS (960 SPF)
  48. Compression mode                         : Lossy
  49. Stream size                              : 177 MiB (11%)
  50. Language                                 : English
  51. Default                                  : Yes
  52. Forced                                   : No
  53. Text
  54. ID                                       : 3
  55. Format                                   : UTF-8
  56. Codec ID                                 : S_TEXT/UTF8
  57. Codec ID/Info                            : UTF-8 Plain Text
  58. Duration                                 : 1 h 31 min
  59. Bit rate                                 : 31 b/s
  60. Count of elements                        : 981
  61. Stream size                              : 21.3 KiB (0%)
  62. Language                                 : Chinese
  63. Default                                  : Yes
  64. Forced                                   : No





此处一般会放置磁力链或种子下载链接,不过此链接需要注册会员才能看到,点击“立即注册”
磁力链下载【下载链接仅对注册会员开放,登陆后可见】
BT9527电影天堂 1、BT9527电影天堂提供的BT文件均来源于互联网抓取,只供网友学习交流、技术提升使用。
2、我们遵守BitTorrent点对点协议原则,任何版权问题请联系原资源发布商,我们不处理任何版权纠纷,谢谢!如有争议请联系邮箱:BT9527#hotmail.com(#换成@)
3、如果您发现某页面或地址有错误,请联系站长邮箱BT9527#hotmail.com(#换成@),我们会尽快处理。您的热心是对BT9527电影天堂最大的支持。
4、本站建议去正规影院观看电影以支持电影行业发展。
最新回复 (0)

你可以在 登录 or 注册 后,对此帖发表评论!

返回
发新帖