畅销书[繁英字幕].Bestseller.2010.BluRay.1080p.x265.10bit-MiniHD 4.51GB

版主小s 3月前 269

✔资源类型:暂未分类   ✔电影年份:2010   ✔电影地区:韩国   ✔电影分类:悬疑

◎译  名 畅销书 / 诡书(港) / Best Seller
◎片  名 ?????
◎年  代 2010
◎产  地 韩国
◎类  别 悬疑
◎语  言 韩语
◎上映日期 2010-04-15
◎IMDb链接 https://www.imdb.com/title/tt1655617/
◎豆瓣评分 6.2/10 (3975人评价)
◎豆瓣链接 https://movie.douban.com/subject/4291261/
◎片  长 South Korea: 117 分钟
◎导  演 李正浩 Jeong-ho Lee (id:1324377)
◎编  剧 李正浩 Jeong-ho Lee (id:1324377)
◎演  员 严正化 Jeong-hwa Eom (id:1023400)
       柳承龙 Seung-ryong Ryu (id:1316165)
       崔江熙 Kang-hee Choi (id:1070746)
       赵震雄 Cho Jin-woong (id:1322203)
       金弘波 Hong-Fa Kim (id:1353736)
       朴相奎 Park Sang-gyu (id:1382224)
       张勇福 Jang Yong-bok (id:1388639)
       李龙女 Yong-nyeo Lee (id:1357669)
       李星民 Sung-min Lee (id:1321576)
       曹熙奉 Hie-bong Jo (id:1331101)
       李度京 Lee Do-kyung (id:1377765)
       郑煐禥 Young-ki Jung (id:1350785)
       崔武成 Moo-seong Choi (id:1339598)
       吴政世 Jeong-se Oh (id:1326212)
       崔永桓 Yeong-hwan Choi (id:1280703)
       申敏静 Min-kyeong Shin (id:1305726)
       李庸基 Yong-Gi Lee (id:1314650)

◎简  介
  居住在首尔的白熙秀(严正花 饰)是一名风光无限的美女作家,但她在巅峰时期陷入抄袭风波,从此一蹶不振,事业和家庭蒙受巨大打击。长达两年的沉寂,让熙秀的精神世界几近崩溃。出版社的好友崔编辑不愿看她继续沉沦,于是鼓励熙秀前往新庆北的山间别墅继续写作。接受了友人的建议,熙秀带着女儿研熙来到别墅。可是不久她便发现,别墅内的气氛分外诡异,而研熙似乎总在和一个看不见的女孩说话。极度的恐惧和无法抑制的好奇促使熙秀探究这所房子的秘密,并将其写入小说之中。                                    
                                不久,熙秀的新作《深渊》问世,随即成为各大榜单上的畅销书,却随之再次陷入抄袭风波。熙秀不愿相信这个事实,她决定重返别墅,彻底揭开几十年前被掩盖的一切……
  1. ##### MediaInfo ######
  2. General
  3. Unique ID                                : 221393716179489903368284007698751108298 (0xA68EE0F5B0859CB986513187F4A934CA)
  4. Complete name                            : Bestseller.2010.BluRay.1080p.x265.10bit-MiniHD.mkv
  5. Format                                   : Matroska
  6. Format version                           : Version 4
  7. File size                                : 4.51 GiB
  8. Duration                                 : 1 h 57 min
  9. Overall bit rate                         : 5 484 kb/s
  10. Encoded date                             : UTC 2017-11-27 08:59:27
  11. Writing application                      : mkvmerge v16.0.0 ('Protest') 32-bit
  12. Writing library                          : libebml v1.3.5 + libmatroska v1.4.8
  13. Video
  14. ID                                       : 2
  15. Format                                   : HEVC
  16. Format/Info                              : High Efficiency Video Coding
  17. Format profile                           : Main 10@L4@Main
  18. Codec ID                                 : V_MPEGH/ISO/HEVC
  19. Duration                                 : 1 h 57 min
  20. Bit rate                                 : 4 735 kb/s
  21. Width                                    : 1 920 pixels
  22. Height                                   : 816 pixels
  23. Display aspect ratio                     : 2.35:1
  24. Frame rate mode                          : Constant
  25. Frame rate                               : 23.976 (24000/1001/53354) FPS
  26. Color space                              : YUV
  27. Chroma subsampling                       : 4:2:0
  28. Bit depth                                : 10 bits
  29. Bits/(Pixel*Frame)                       : 0.126
  30. Stream size                              : 3.89 GiB (86%)
  31. Writing library                          : x265 2.5+2-18fa144d453e:[Windows][GCC 7.1.0][64 bit] 10bit
  32. Encoding settings                        : cpuid=533541173503 / frame-threads=3 / numa-pools=8 / wpp / no-pmode / no-pme / no-psnr / no-ssim / log-level=2 / input-csp=1 / input-res=1920x816 / interlace=0 / total-frames=169400 / level-idc=0 / high-tier=1 / uhd-bd=0 / ref=5 / no-allow-non-conformance / no-repeat-headers / annexb / no-aud / no-hrd / info / hash=0 / no-temporal-layers / no-open-gop / min-keyint=1 / keyint=360 / bframes=8 / b-adapt=2 / b-pyramid / bframe-bias=0 / rc-lookahead=40 / lookahead-slices=4 / NTMzNTQ=uuDQuD2mJt9fsCf / scenecut=40 / no-intra-refresh / ctu=32 / min-cu-size=8 / rect / no-amp / max-tu-size=16 / tu-inter-depth=2 / tu-intra-depth=2 / limit-tu=4 / rdoq-level=1 / dynamic-rd=0.00 / ssim-rd / signhide / no-tskip / nr-intra=0 / nr-inter=0 / no-constrained-intra / no-strong-intra-smoothing / max-merge=3 / limit-refs=2 / limit-modes / me=3 / subme=5 / merange=25 / temporal-mvp / weightp / weightb / no-analyze-src-pics / deblock=-1:-1 / no-sao / no-sao-non-deblock / rd=4 / no-early-skip / rskip / no-fast-intra / no-tskip-fast / no-cu-lossless / b-intra / rdpenalty=1 / psy-rd=0.00 / psy-rdoq=3.00 / no-rd-refine / analysis-reuse-mode=0 / no-lossless / cbqpoffs=-2 / crqpoffs=-2 / rc=crf / crf=20.0 / qcomp=0.70 / qpstep=4 / stats-write=0 / stats-read=0 / ipratio=1.40 / pbratio=1.30 / aq-mode=2 / aq-strength=0.80 / cutree / zone-count=0 / no-strict-cbr / qg-size=16 / no-rc-grain / qpmax=69 / qpmin=0 / no-const-vbv / sar=1 / overscan=0 / videoformat=5 / range=0 / colorprim=1 / transfer=2 / colormatrix=2 / chromaloc=0 / display-window=0 / max-cll=0,0 / min-luma=0 / max-luma=1023 / log2-max-poc-lsb=8 / vui-timing-info / vui-hrd-info / slices=1 / opt-qp-pps / opt-ref-list-length-pps / no-multi-pass-opt-rps / scenecut-bias=0.05 / no-opt-cu-delta-qp / no-aq-motion / no-hdr / no-hdr-opt / no-dhdr10-opt / analysis-reuse-level=5 / scale-factor=0 / refine-intra=0 / refine-inter=0 / refine-mv=0 / no-limit-sao / ctu-info=0
  33. Default                                  : Yes
  34. Forced                                   : No
  35. Color range                              : Limited
  36. Color primaries                          : BT.709
  37. Audio
  38. ID                                       : 1
  39. Format                                   : AC-3
  40. Format/Info                              : Audio Coding 3
  41. Commercial name                          : Dolby Digital
  42. Codec ID                                 : A_AC3
  43. Duration                                 : 1 h 57 min
  44. Bit rate mode                            : Constant
  45. Bit rate                                 : 640 kb/s
  46. Channel(s)                               : 6 channels
  47. Channel layout                           : L R C LFE Ls Rs
  48. Sampling rate                            : 48.0 kHz
  49. Frame rate                               : 31.250 FPS (1536 SPF)
  50. Compression mode                         : Lossy
  51. Stream size                              : 539 MiB (12%)
  52. Title                                    : 韩
  53. Language                                 : Korean
  54. Service kind                             : Complete Main
  55. Default                                  : Yes
  56. Forced                                   : No
  57. Text #1
  58. ID                                       : 3
  59. Format                                   : PGS
  60. Muxing mode                              : zlib
  61. Codec ID                                 : S_HDMV/PGS
  62. Codec ID/Info                            : Picture based subtitle format used on BDs/HD-DVDs
  63. Title                                    : 繁
  64. Language                                 : Chinese
  65. Default                                  : Yes
  66. Forced                                   : No
  67. Text #2
  68. ID                                       : 4
  69. Format                                   : PGS
  70. Muxing mode                              : zlib
  71. Codec ID                                 : S_HDMV/PGS
  72. Codec ID/Info                            : Picture based subtitle format used on BDs/HD-DVDs
  73. Title                                    : 英
  74. Language                                 : English
  75. Default                                  : No
  76. Forced                                   : No
  77. Menu
  78. 00:00:00.000                             : en:Chapter 01
  79. 00:08:47.860                             : en:Chapter 02
  80. 00:18:05.918                             : en:Chapter 03
  81. 00:35:37.535                             : en:Chapter 04
  82. 00:42:38.022                             : en:Chapter 05
  83. 00:52:10.193                             : en:Chapter 06
  84. 01:02:53.402                             : en:Chapter 07
  85. 01:09:16.285                             : en:Chapter 08
  86. 01:15:24.620                             : en:Chapter 09
  87. 01:25:59.754                             : en:Chapter 10
  88. 01:37:28.142                             : en:Chapter 11
  89. 01:50:40.967                             : en:Chapter 12





此处一般会放置磁力链或种子下载链接,不过此链接需要注册会员才能看到,点击“立即注册”
磁力链下载【下载链接仅对注册会员开放,登陆后可见】
BT9527电影天堂 1、BT9527电影天堂提供的BT文件均来源于互联网抓取,只供网友学习交流、技术提升使用。
2、我们遵守BitTorrent点对点协议原则,任何版权问题请联系原资源发布商,我们不处理任何版权纠纷,谢谢!如有争议请联系邮箱:BT9527#hotmail.com(#换成@)
3、如果您发现某页面或地址有错误,请联系站长邮箱BT9527#hotmail.com(#换成@),我们会尽快处理。您的热心是对BT9527电影天堂最大的支持。
4、本站建议去正规影院观看电影以支持电影行业发展。
最新回复 (0)

你可以在 登录 or 注册 后,对此帖发表评论!

返回
发新帖