绿洲[中英字幕].Oasis.2002.BluRay.1080p.x265.10bit-MiniHD 3.73GB

版主小s 3月前 349

✔资源类型:暂未分类   ✔电影年份:更 早   ✔电影地区:韩国   ✔电影分类:剧情

◎译  名 绿洲 / 绿洲曳影 / 爱的绿洲 / Oasis
◎片  名 ????
◎年  代 2002
◎产  地 韩国
◎类  别 剧情 / 爱情
◎语  言 韩语
◎上映日期 2002-08-15(韩国)
◎IMDb链接 https://www.imdb.com/title/tt0320193/
◎豆瓣评分 8.7/10 (55745人评价)
◎豆瓣链接 https://movie.douban.com/subject/1299582/
◎片  长 132分钟
◎导  演 李沧东 Chang-dong Lee (id:1103667)
◎编  剧 李沧东 Chang-dong Lee (id:1103667)
◎演  员 薛景求 Kyung-gu Sol (id:1045576)
       文素丽 So-ri Moon (id:1010047)
       安内相 Nae-sang Ahn (id:1322622)
       秋贵晶 Kwi-jung Choo (id:1383005)
       柳昇完 Seung-wan Ryoo (id:1138335)
       孙秉浩 Byung-ho Son (id:1024148)
       朴明申 Myung-shin Park (id:1381298)
       高瑞熙 Seo-hie Ko (id:1213408)
       李宗宇 Jong-woo Lee (id:1391516)
       金度英 Do-young Kim (id:1394430)
       郭秀贞 Soo-Jeong Kwak (id:1429922)
       明桂南 Gye-nam Myeong (id:1134600)
       李准东 Jun-dong Lee (id:1325410)
       Min-cheul Cho Min-cheul Cho (id:1373555)
       金玄 Hyun Kim (id:1393478)
       辛点希 Jum-hee Shin (id:1393479)
       金光植 Kwang-shik Kim (id:1346443)
       李承哲 Seung-cheol Lee (id:1393485)

◎简  介
  刑满释放的洪忠都(薛景求饰)出狱后,家人对他横加排斥,而他之所以被判入狱,只是为了顶替哥哥的罪名。之后心冷意凉的他,来到车祸死者的住所拜访家属,遇到死者的女儿韩恭洙(文素利饰)——一名重度脑麻痹患者,面容扭曲、手脚抽搐。但忠都却被她吸引,并在冲动下做出大胆之举。                                    
                                但在意外事件后,两人彼此都萌生了情感思念,孤独的心灵就此渐渐靠拢。他们看似身心不甚健全的非正常人,却遭遇着赤裸裸的现实不公。不过,命运并没有就此放过戏弄他们的机会。

◎获奖情况 (共5项)
  第59届威尼斯电影节 (2002)
  主竞赛单元 金狮奖 (提名)
   └──李沧东 (id:1103667)
  费比西奖(国际影评人联盟奖) 竞赛单元费比西奖
   └──李沧东 (id:1103667)
  马塞洛·马斯托依安尼奖(新锐演员奖)
   └──文素丽 (id:1010047)
  天主教文化奖
   └──李沧东 (id:1103667)
  特别导演奖
   └──李沧东 (id:1103667)

  1. ##### MediaInfo ######
  2. General
  3. Unique ID                                : 214078763549882111490029275005302092634 (0xA10E11F33DAA4223963AE90B3A9C335A)
  4. Complete name                            : Oasis.2002.BluRay.1080p.x265.10bit-MiniHD.mkv
  5. Format                                   : Matroska
  6. Format version                           : Version 4
  7. File size                                : 3.73 GiB
  8. Duration                                 : 2 h 13 min
  9. Overall bit rate                         : 4 006 kb/s
  10. Encoded date                             : UTC 2017-04-07 15:43:41
  11. Writing application                      : mkvmerge v9.7.1 ('Pandemonium') 64bit
  12. Writing library                          : libebml v1.3.4 + libmatroska v1.4.5
  13. Video
  14. ID                                       : 1
  15. Format                                   : HEVC
  16. Format/Info                              : High Efficiency Video Coding
  17. Format profile                           : Main 10@L4@Main
  18. Codec ID                                 : V_MPEGH/ISO/HEVC
  19. Duration                                 : 2 h 13 min
  20. Bit rate                                 : 3 286 kb/s
  21. Width                                    : 1 920 pixels
  22. Height                                   : 1 038 pixels
  23. Display aspect ratio                     : 1.85:1
  24. Frame rate mode                          : Constant
  25. Frame rate                               : 23.976 (24000/1001/53354) FPS
  26. Color space                              : YUV
  27. Chroma subsampling                       : 4:2:0
  28. Bit depth                                : 10 bits
  29. Bits/(Pixel*Frame)                       : 0.069
  30. Stream size                              : 3.06 GiB (82%)
  31. Writing library                          : x265 2.3+24-a0eee4b41185:[Windows][GCC 6.3.0][64 bit] 10bit
  32. Encoding settings                        : cpuid=533541173503 / frame-threads=6 / numa-pools=36 / wpp / no-pmode / no-pme / no-psnr / no-ssim / log-level=2 / input-csp=1 / input-res=1920x1038 / interlace=0 / total-frames=191808 / level-idc=0 / high-tier=1 / uhd-bd=0 / ref=5 / no-allow-non-conformance / no-repeat-headers / annexb / no-aud / no-hrd / info / hash=0 / no-temporal-layers / no-open-gop / min-keyint=1 / keyint=360 / bframes=8 / b-adapt=2 / b-pyramid / bframe-bias=0 / rc-lookahead=60 / lookahead-slices=4 / NTMzNTQ=uuDQuD2mJt9fsCf / scenecut=40 / no-intra-refresh / ctu=32 / min-cu-size=8 / rect / no-amp / max-tu-size=16 / tu-inter-depth=2 / tu-intra-depth=2 / limit-tu=4 / rdoq-level=2 / dynamic-rd=0.00 / signhide / no-tskip / nr-intra=0 / nr-inter=0 / no-constrained-intra / no-strong-intra-smoothing / max-merge=3 / limit-refs=1 / limit-modes / me=3 / subme=5 / merange=25 / temporal-mvp / weightp / weightb / no-analyze-src-pics / deblock=-1:-1 / no-sao / no-sao-non-deblock / rd=4 / no-early-skip / rskip / no-fast-intra / no-tskip-fast / no-cu-lossless / b-intra / rdpenalty=1 / psy-rd=0.00 / psy-rdoq=5.00 / no-rd-refine / analysis-mode=0 / no-lossless / cbqpoffs=-2 / crqpoffs=-2 / rc=crf / crf=20.0 / qcomp=0.65 / qpstep=4 / stats-write=0 / stats-read=0 / ipratio=1.40 / pbratio=1.30 / aq-mode=2 / aq-strength=0.80 / cutree / zone-count=0 / no-strict-cbr / qg-size=16 / no-rc-grain / qpmax=69 / qpmin=0 / sar=0 / overscan=0 / videoformat=5 / range=0 / colorprim=1 / transfer=2 / colormatrix=2 / chromaloc=0 / display-window=0 / max-cll=0,0 / min-luma=0 / max-luma=1023 / log2-max-poc-lsb=8 / vui-timing-info / vui-hrd-info / slices=1 / opt-qp-pps / opt-ref-list-length-pps / no-multi-pass-opt-rps / scenecut-bias=0.05 / no-opt-cu-delta-qp / no-aq-motion / no-hdr / no-hdr-opt / refine-level=5
  33. Default                                  : Yes
  34. Forced                                   : No
  35. Color range                              : Limited
  36. Color primaries                          : BT.709
  37. Audio
  38. ID                                       : 2
  39. Format                                   : AC-3
  40. Format/Info                              : Audio Coding 3
  41. Commercial name                          : Dolby Digital
  42. Codec ID                                 : A_AC3
  43. Duration                                 : 2 h 13 min
  44. Bit rate mode                            : Constant
  45. Bit rate                                 : 640 kb/s
  46. Channel(s)                               : 6 channels
  47. Channel layout                           : L R C LFE Ls Rs
  48. Sampling rate                            : 48.0 kHz
  49. Frame rate                               : 31.250 FPS (1536 SPF)
  50. Compression mode                         : Lossy
  51. Stream size                              : 610 MiB (16%)
  52. Language                                 : Korean
  53. Service kind                             : Complete Main
  54. Default                                  : Yes
  55. Forced                                   : No
  56. Text #1
  57. ID                                       : 3
  58. Format                                   : PGS
  59. Muxing mode                              : zlib
  60. Codec ID                                 : S_HDMV/PGS
  61. Codec ID/Info                            : Picture based subtitle format used on BDs/HD-DVDs
  62. Language                                 : Korean
  63. Default                                  : Yes
  64. Forced                                   : No
  65. Text #2
  66. ID                                       : 4
  67. Format                                   : PGS
  68. Muxing mode                              : zlib
  69. Codec ID                                 : S_HDMV/PGS
  70. Codec ID/Info                            : Picture based subtitle format used on BDs/HD-DVDs
  71. Language                                 : Chinese
  72. Default                                  : No
  73. Forced                                   : No
  74. Text #3
  75. ID                                       : 5
  76. Format                                   : PGS
  77. Muxing mode                              : zlib
  78. Codec ID                                 : S_HDMV/PGS
  79. Codec ID/Info                            : Picture based subtitle format used on BDs/HD-DVDs
  80. Language                                 : Chinese
  81. Default                                  : No
  82. Forced                                   : No
  83. Text #4
  84. ID                                       : 6
  85. Format                                   : PGS
  86. Muxing mode                              : zlib
  87. Codec ID                                 : S_HDMV/PGS
  88. Codec ID/Info                            : Picture based subtitle format used on BDs/HD-DVDs
  89. Language                                 : Chinese
  90. Default                                  : No
  91. Forced                                   : No
  92. Text #5
  93. ID                                       : 7
  94. Format                                   : PGS
  95. Muxing mode                              : zlib
  96. Codec ID                                 : S_HDMV/PGS
  97. Codec ID/Info                            : Picture based subtitle format used on BDs/HD-DVDs
  98. Language                                 : Chinese
  99. Default                                  : No
  100. Forced                                   : No
  101. Text #6
  102. ID                                       : 8
  103. Format                                   : PGS
  104. Muxing mode                              : zlib
  105. Codec ID                                 : S_HDMV/PGS
  106. Codec ID/Info                            : Picture based subtitle format used on BDs/HD-DVDs
  107. Language                                 : English
  108. Default                                  : No
  109. Forced                                   : No
  110. Menu
  111. 00:00:00.000                             : en:Chapter 01
  112. 00:09:34.240                             : en:Chapter 02
  113. 00:15:16.749                             : en:Chapter 03
  114. 00:25:11.259                             : en:Chapter 04
  115. 00:32:38.915                             : en:Chapter 05
  116. 00:41:22.271                             : en:Chapter 06
  117. 00:49:57.202                             : en:Chapter 07
  118. 00:56:31.763                             : en:Chapter 08
  119. 01:03:05.656                             : en:Chapter 09
  120. 01:08:18.552                             : en:Chapter 10
  121. 01:18:42.676                             : en:Chapter 11
  122. 01:20:58.478                             : en:Chapter 12
  123. 01:23:28.128                             : en:Chapter 13
  124. 01:35:06.367                             : en:Chapter 14
  125. 01:40:10.921                             : en:Chapter 15
  126. 01:48:27.959                             : en:Chapter 16
  127. 01:56:02.497                             : en:Chapter 17
  128. 02:08:21.694                             : en:Chapter 18





此处一般会放置磁力链或种子下载链接,不过此链接需要注册会员才能看到,点击“立即注册”
磁力链下载【下载链接仅对注册会员开放,登陆后可见】
BT9527电影天堂 1、BT9527电影天堂提供的BT文件均来源于互联网抓取,只供网友学习交流、技术提升使用。
2、我们遵守BitTorrent点对点协议原则,任何版权问题请联系原资源发布商,我们不处理任何版权纠纷,谢谢!如有争议请联系邮箱:BT9527#hotmail.com(#换成@)
3、如果您发现某页面或地址有错误,请联系站长邮箱BT9527#hotmail.com(#换成@),我们会尽快处理。您的热心是对BT9527电影天堂最大的支持。
4、本站建议去正规影院观看电影以支持电影行业发展。
最新回复 (0)

你可以在 登录 or 注册 后,对此帖发表评论!

返回