宇宙天魔[中文字幕].Lifeforce.1985.1080p.BluRay.DTS.x265-10bit-ENTHD 7.40GB

版主小s 20天前 35

✔资源类型:暂未分类   ✔电影年份:更 早   ✔电影地区:欧美   ✔电影分类:科幻

◎译  名 宇宙天魔 / 崩裂的地球 / 撕裂的地球
◎片  名 Lifeforce
◎年  代 1985
◎产  地 英国
◎类  别 科幻 / 惊悚 / 恐怖
◎语  言 英语
◎上映日期 1985-06-21
◎IMDb链接 https://www.imdb.com/title/tt0089489/
◎豆瓣评分 6.3/10 (1715人评价)
◎豆瓣链接 https://movie.douban.com/subject/1300305/
◎片  长 116 分钟
◎导  演 托比·霍珀 Tobe Hooper (id:1007089)
◎编  剧 科林·威尔逊 Colin Wilson (id:1168135)
       丹·欧班农 Dan O'Bannon (id:1027500)
       唐·雅各比 Don Jakoby (id:1287555)
       迈克尔·阿姆斯特朗 Michael Armstrong (id:1057953)
       Olaf Pooley Olaf Pooley (id:1008186)
◎演  员 玛蒂尔达·梅 Mathilda May (id:1004782)
       史蒂夫·雷尔斯巴克 Steve Railsback (id:1041240)
       彼得·弗斯 Peter Firth (id:1041217)
       弗兰克·芬莱 Frank Finlay (id:1025352)
       帕特里克·斯图尔特 Patrick Stewart (id:1010540)
       迈克尔·戈特哈德 Michael Gothard (id:1096908)
       Nicholas Ball Nicholas Ball (id:1061613)
       帕特里克·乔丹 Patrick Jordan (id:1028780)
       约翰·拉尔奎特 John Larroquette (id:1036490)
       德里克·本菲尔德 Derek Benfield (id:1032878)
       奥布里·莫里斯 Aubrey Morris (id:1131564)
       帕特里克·康纳 Patrick Connor (id:1076809)
       朱利安·弗思 Julian Firth (id:1079275)
       Peter Porteous Peter Porteous (id:1135172)
       Ken Parry Ken Parry (id:1129478)
       卡瑟琳·斯科菲尔德 Katherine Schofield (id:1138225)
       艾玛雅各布丝 Emma Jacobs (id:1111387)
       Sidney Kean Sidney Kean (id:1102679)
       克里斯·苏利文 Chris Sullivan (id:1149427)
       提普·蒂平 Tip Tipping (id:1152813)
       杰罗姆·威利斯 Jerome Willis (id:1164404)
       John Woodnutt John Woodnutt (id:1164935)
       Owen Holder Owen Holder (id:1096388)
       Ian Cashmore Ian Cashmore (id:1169270)
       John Golightly John Golightly (id:1097009)
       John Hallam John Hallam (id:1091533)
       Edward Evans Edward Evans (id:1087834)
       Geoffrey Frederick Geoffrey Frederick (id:1085001)
       John Forbes-Robertson John Forbes-Robertson (id:1081945)
       米纳罕·戈兰 Menahem Golan (id:1054262)
       Yoram Globus Yoram Globus (id:1284987)
       亨利·曼西尼 Henry Mancini (id:1002849)
       艾伦·休姆 Alan Hume (id:1028854)
       Maude Spector Maude Spector (id:1158641)
       Simon Wakefield Simon Wakefield (id:1300282)
       罗伯特·卡特莱特 Robert Cartwright (id:1280203)
       托尼·里丁 Tony Reading (id:1295322)
       阿兰·汤姆金斯 Alan Tomkins (id:1299369)
       约翰·格雷斯马克 John Graysmark (id:1285338)
       Jez Harris Jez Harris (id:1284818)
       大卫·怀特 David White (id:1300803)
       Joseph Ross Joseph Ross (id:1140903)
       Geoffrey Portass Geoffrey Portass (id:1294753)
       Jean Bolte Jean Bolte (id:1278923)
       丹尼尔·帕克 Daniel Parker (id:1293974)
       斯蒂芬·诺林顿 Stephen Norrington (id:1293293)
       Tony Dunsterville Tony Dunsterville (id:1282831)
       波比·肯尼 Bob Keen (id:1288295)
       Michael Morris Michael Morris (id:1136665)
       尼克·梅利 Nick Maley (id:1011188)
       Derek Cracknell Derek Cracknell (id:1072748)
       Glenn Campbell Glenn Campbell (id:1279971)
       格兰特·麦丘恩 Grant McCune (id:1291510)
       Chuck Shuman Chuck Shuman (id:1048780)
       Brian Cole Brian Cole (id:1281017)
       兰迪·富默 Randy Fullmer (id:1284319)
       道格拉斯·汉斯·史密斯 Douglas Hans Smith (id:1297879)
       马克·贝克 Mat Beck (id:1278183)
       John Brunner John Brunner (id:1030011)
       保罗·D·约翰逊 Paul D. Johnson (id:1111734)
       Thomas Valentine Thomas Valentine (id:1299794)
       迈克尔·乔伊斯 Michael Joyce (id:1008348)
       Richard Taylor Richard Taylor (id:1299012)
       约翰·戴克斯特拉 John Dykstra (id:1018536)
       John E. Sullivan John E. Sullivan (id:1298626)
       唐·特朗布尔 Don Trumbull (id:1149405)
       克里斯托弗·S·罗斯 Christopher S. Ross (id:1296139)
       Jon Erland Jon Erland (id:1080764)

◎简  介
  宇宙飞船邱吉尔号接近哈雷彗星,欲探知其内部构造。船长汤姆?卡尔森(Steve Railsback 饰)带领一组队员走出船舱,发现彗星内部藏有一艘废弃的飞船,内有多具奇怪生物的干尸以及三个沉睡在水晶棺内的人类。为解开其中奥秘,汤姆下令将他们带回飞船。                                    
                                三十天后,空无一人的邱吉尔号飞临地球,航天总署派出哥伦比亚号与之对接。宇航员在船中发现焚烧的痕迹和那三个沉睡之人,而机组成员全部死亡。回到地球后,三个人中的女性(Mathilda May 饰)突然苏醒,吸取了年轻守卫的精气。之后守卫变成干尸,并最终风化。不久其他两人苏醒,似乎一场灾难正降临地球……
  1. ##### MediaInfo ######
  2. General
  3. Unique ID                                : 252166498191134137616688974049894417098 (0xBDB5804078B647F65D4CB92E49AB42CA)
  4. Complete name                            : Lifeforce.1985.1080p.BluRay.DTS.x265-10bit-ENTHD.mkv
  5. Format                                   : Matroska
  6. Format version                           : Version 4
  7. File size                                : 7.39 GiB
  8. Duration                                 : 1 h 56 min
  9. Overall bit rate                         : 9 108 kb/s
  10. Movie name                               : Lifeforce 1985 1080p BluRay DTS x265-10bit-HDS
  11. Encoded date                             : UTC 2022-06-08 08:50:16
  12. Writing application                      : mkvmerge v38.0.0 ('The Silent Type') 64-bit
  13. Writing library                          : libebml v1.3.9 + libmatroska v1.5.2
  14. Video
  15. ID                                       : 1
  16. Format                                   : HEVC
  17. Format/Info                              : High Efficiency Video Coding
  18. Format profile                           : Main 10@L5.1@High
  19. Codec ID                                 : V_MPEGH/ISO/HEVC
  20. Duration                                 : 1 h 56 min
  21. Bit rate                                 : 7 579 kb/s
  22. Width                                    : 1 920 pixels
  23. Height                                   : 816 pixels
  24. Display aspect ratio                     : 2.35:1
  25. Frame rate mode                          : Constant
  26. Frame rate                               : 23.976 (24000/1001/53354) FPS
  27. Color space                              : YUV
  28. Chroma subsampling                       : 4:2:0
  29. Bit depth                                : 10 bits
  30. Bits/(Pixel*Frame)                       : 0.202
  31. Stream size                              : 6.15 GiB (83%)
  32. Title                                    : billpotter@HDSky
  33. Writing library                          : x265 - H.265/HEVC codec
  34. Default                                  : Yes
  35. Forced                                   : No
  36. Audio
  37. ID                                       : 2
  38. Format                                   : DTS
  39. Format/Info                              : Digital Theater Systems
  40. Codec ID                                 : A_DTS
  41. Duration                                 : 1 h 56 min
  42. Bit rate mode                            : Constant
  43. Bit rate                                 : 1 509 kb/s
  44. Channel(s)                               : 6 channels
  45. Channel layout                           : C L R Ls Rs LFE
  46. Sampling rate                            : 48.0 kHz
  47. Frame rate                               : 93.750 FPS (512 SPF)
  48. Bit depth                                : 24 bits
  49. Compression mode                         : Lossy
  50. Stream size                              : 1.23 GiB (17%)
  51. Title                                    : English
  52. Language                                 : English
  53. Default                                  : Yes
  54. Forced                                   : No
  55. Text #1
  56. ID                                       : 3
  57. Format                                   : PGS
  58. Muxing mode                              : zlib
  59. Codec ID                                 : S_HDMV/PGS
  60. Codec ID/Info                            : Picture based subtitle format used on BDs/HD-DVDs
  61. Duration                                 : 1 h 50 min
  62. Bit rate                                 : 17.5 kb/s
  63. Count of elements                        : 2058
  64. Stream size                              : 13.8 MiB (0%)
  65. Title                                    : CHS
  66. Language                                 : Chinese
  67. Default                                  : Yes
  68. Forced                                   : No
  69. Text #2
  70. ID                                       : 4
  71. Format                                   : PGS
  72. Muxing mode                              : zlib
  73. Codec ID                                 : S_HDMV/PGS
  74. Codec ID/Info                            : Picture based subtitle format used on BDs/HD-DVDs
  75. Duration                                 : 1 h 50 min
  76. Bit rate                                 : 18.1 kb/s
  77. Count of elements                        : 1846
  78. Stream size                              : 14.3 MiB (0%)
  79. Title                                    : CHT
  80. Language                                 : Chinese
  81. Default                                  : No
  82. Forced                                   : No





此处一般会放置磁力链或种子下载链接,不过此链接需要注册会员才能看到,点击“立即注册”
磁力链下载【下载链接仅对注册会员开放,登陆后可见】
BT9527电影天堂 1、BT9527电影天堂提供的BT文件均来源于互联网抓取,只供网友学习交流、技术提升使用。
2、我们遵守BitTorrent点对点协议原则,任何版权问题请联系原资源发布商,我们不处理任何版权纠纷,谢谢!如有争议请联系邮箱:BT9527#hotmail.com(#换成@)
3、如果您发现某页面或地址有错误,请联系站长邮箱BT9527#hotmail.com(#换成@),我们会尽快处理。您的热心是对BT9527电影天堂最大的支持。
4、本站建议去正规影院观看电影以支持电影行业发展。
最新回复 (0)

你可以在 登录 or 注册 后,对此帖发表评论!

返回
发新帖