标靶[简繁英字幕].The.Target.2014.BluRay.1080p.DTS-HD.MA5.1.x265.10bit-ALT 8.25GB

版主小s 20天前 113

✔资源类型:暂未分类   ✔电影年份:2014   ✔电影地区:韩国   ✔电影分类:动作

◎译  名 标靶 / 零点追凶 / 单刀直入 / 目标 / Target / Point Blank / Pyojeok / ??? ???
◎片  名 ??
◎年  代 2014
◎产  地 韩国
◎类  别 动作 / 惊悚
◎语  言 韩语
◎上映日期 2014-04-30(韩国)
◎IMDb链接 https://www.imdb.com/title/tt3634940/
◎豆瓣评分 6.5/10 (5047人评价)
◎豆瓣链接 https://movie.douban.com/subject/20452442/
◎片  长 98分钟
◎导  演 尹鸿承 Chang (id:1335973)
◎编  剧 全哲洪 Cheol-Hong Jeon (id:1343649)
       Seong-Geol Jo Seong-Geol Jo (id:1361525)
       尹鸿承 Chang (id:1335973)
       弗雷德·卡瓦耶 Fred Cavayé (id:1275995)
◎演  员 柳承龙 Seung-ryong Ryu (id:1316165)
       刘俊相 Jun-sang Yu (id:1039289)
       李阵郁 Jin-wook Lee (id:1315533)
       金成铃 Sung-ryeong Kim (id:1217935)
       曹汝贞 Yeo-Jeong Jo (id:1205984)
       曹恩智 Eun-ji Jo (id:1006294)
       Jin Guo Jin Guo (id:1361526)
       晋久 Goo Jin (id:1314145)
       大谷亮平 Ryohei Otani (id:1318236)
       金大明 Dae-Myung Kim (id:1345522)
       李铉旭 Hyun-wook Lee (id:1421302)
       金英在 Yeong-jae Kim (id:1327560)
       金钟求 Kim Jong-goo (id:1379540)
       李贤杰 Hyeon-geol Lee (id:1400213)
       赵庆勋 Kyeong-hun Jo (id:1423891)
       申淡秀 Shin Dam-soo (id:1378875)
       林一圭 Lim il-kyu (id:1376445)
       金泰奂 Kim Tae-hwan (id:1391807)
       Seong-Geol Jo Seong-Geol Jo (id:1361525)
       朴仁英 Inyoung Park (id:1464539)
       崔相默 Sang-mok Choi (id:1363558)
       金昌洙 Chang-ju Kim (id:1308553)

◎简  介
  繁忙的医院,送来一名看似毫无特别之处的有勋(柳承龙 饰)伤重患者,主治医生泰俊(李镇旭 饰)发现对方遭遇枪伤,随后命令护士报案,而他不顾之后发生的一个蹊跷事件,急匆匆地回家陪伴怀孕的老婆熙珠。次日一早,才刚起床的泰俊遭到神秘之人攻击晕倒,当他再次醒来时,发现熙珠不在家中,随后一同电话打来,命令他将有勋带出病院,否则无法保证熙珠的安危。惊慌失措的泰俊急匆匆赶到医院,结果遭遇专案刑警英珠(金成玲 饰),他想方设法带有勋离开,结果有勋醒来后逃脱了控制,后者蒙受不白之冤,必须尽快查明真相。而泰俊能否成功解救妻子?                                    
                                本片根据法国影片《单刀直入》改编。

◎获奖情况 (共1项)
  第17届上海国际电影节 (2014)
  金爵奖 最佳影片(提名)
   └──尹鸿承 (id:1335973)

  1. ##### MediaInfo ######
  2. General
  3. Unique ID                                : 167394392437494922969982134417188528218 (0x7DEEFCBF2794F429F88230BF9DF9205A)
  4. Complete name                            : The.Target.2014.BluRay.1080p.DTS-HD.MA5.1.x265.10bit-ALT.mkv
  5. Format                                   : Matroska
  6. Format version                           : Version 4
  7. File size                                : 8.25 GiB
  8. Duration                                 : 1 h 38 min
  9. Overall bit rate mode                    : Variable
  10. Overall bit rate                         : 12.0 Mb/s
  11. Encoded date                             : UTC 2022-06-10 03:27:00
  12. Writing application                      : mkvmerge v49.0.0 ('Sick Of Losing Soulmates') 64-bit
  13. Writing library                          : libebml v1.4.0 + libmatroska v1.6.1
  14. Video
  15. ID                                       : 1
  16. Format                                   : HEVC
  17. Format/Info                              : High Efficiency Video Coding
  18. Format profile                           : Main 10@L5.1@High
  19. Codec ID                                 : V_MPEGH/ISO/HEVC
  20. Duration                                 : 1 h 38 min
  21. Bit rate                                 : 7 587 kb/s
  22. Width                                    : 1 920 pixels
  23. Height                                   : 804 pixels
  24. Display aspect ratio                     : 2.40:1
  25. Frame rate mode                          : Constant
  26. Frame rate                               : 23.976 (24000/1001/53354) FPS
  27. Color space                              : YUV
  28. Chroma subsampling                       : 4:2:0
  29. Bit depth                                : 10 bits
  30. Bits/(Pixel*Frame)                       : 0.205
  31. Stream size                              : 5.22 GiB (63%)
  32. Title                                    : HEVC, x265Main10@L5.1@High, 24/1.001 fps @ 7586 kbps
  33. Writing library                          : x265 3.5+36-1f2c8da77:[Windows][GCC 11.2.0][64 bit] 10bit
  34. Encoding settings                        : cpuid=533541111039 / frame-threads=4 / numa-pools=16 / wpp / no-pmode / no-pme / no-psnr / no-ssim / log-level=2 / input-csp=1 / input-res=1920x804 / interlace=0 / total-frames=141617 / level-idc=51 / high-tier=1 / uhd-bd=0 / ref=5 / no-allow-non-conformance / no-repeat-headers / annexb / no-aud / no-eob / no-eos / no-hrd / info / hash=0 / no-temporal-layers / open-gop / min-keyint=24 / keyint=240 / gop-lookahead=0 / bframes=6 / b-adapt=2 / b-pyramid / bframe-bias=0 / rc-lookahead=40 / lookahead-slices=0 / NTMzNTQ=uuDQuD2mJt9fsCf / scenecut=40 / no-hist-scenecut / radl=0 / no-splice / no-intra-refresh / ctu=32 / min-cu-size=8 / no-rect / no-amp / max-tu-size=32 / tu-inter-depth=3 / tu-intra-depth=3 / limit-tu=4 / rdoq-level=2 / dynamic-rd=0.00 / no-ssim-rd / signhide / no-tskip / nr-intra=0 / nr-inter=0 / no-constrained-intra / no-strong-intra-smoothing / max-merge=4 / limit-refs=1 / limit-modes / me=3 / subme=4 / merange=25 / temporal-mvp / no-frame-dup / no-hme / weightp / weightb / no-analyze-src-pics / deblock=-3:-3 / no-sao / no-sao-non-deblock / rd=6 / selective-sao=0 / no-early-skip / rskip / no-fast-intra / no-tskip-fast / no-cu-lossless / b-intra / no-splitrd-skip / rdpenalty=0 / psy-rd=2.00 / psy-rdoq=1.00 / no-rd-refine / no-lossless / cbqpoffs=-2 / crqpoffs=-2 / rc=crf / crf=17.0 / qcomp=0.65 / qpstep=4 / stats-write=0 / stats-read=0 / vbv-maxrate=80000 / vbv-bufsize=80000 / vbv-init=0.9 / min-vbv-fullness=50.0 / max-vbv-fullness=80.0 / crf-max=0.0 / crf-min=0.0 / ipratio=1.40 / pbratio=1.30 / aq-mode=2 / aq-strength=0.85 / cutree / zone-count=0 / no-strict-cbr / qg-size=32 / no-rc-grain / qpmax=69 / qpmin=0 / no-const-vbv / sar=1 / overscan=0 / videoformat=5 / range=0 / colorprim=1 / transfer=1 / colormatrix=1 / chromaloc=0 / display-window=0 / cll=0,0 / min-luma=0 / max-luma=1023 / log2-max-poc-lsb=8 / vui-timing-info / vui-hrd-info / slices=1 / no-opt-qp-pps / no-opt-ref-list-length-pps / no-multi-pass-opt-rps / scenecut-bias=0.05 / hist-threshold=0.03 / no-opt-cu-delta-qp / no-aq-motion / no-hdr10 / no-hdr10-opt / no-dhdr10-opt / no-idr-recovery-sei / analysis-reuse-level=0 / analysis-save-reuse-level=0 / analysis-load-reuse-level=0 / scale-factor=0 / refine-intra=0 / refine-inter=0 / refine-mv=1 / refine-ctu-distortion=0 / no-limit-sao / ctu-info=0 / no-lowpass-dct / refine-analysis-type=0 / copy-pic=1 / max-ausize-factor=1.0 / no-dynamic-refine / no-single-sei / no-hevc-aq / no-svt / no-field / qp-adaptation-range=1.00 / scenecut-aware-qp=0conformance-window-offsets / right=0 / bottom=0 / NTMzNTQ= / decoder-max-rate=0 / no-vbv-live-multi-pass
  35. Language                                 : English
  36. Default                                  : Yes
  37. Forced                                   : No
  38. Color range                              : Limited
  39. Color primaries                          : BT.709
  40. Transfer characteristics                 : BT.709
  41. Matrix coefficients                      : BT.709
  42. Audio
  43. ID                                       : 2
  44. Format                                   : DTS XLL
  45. Format/Info                              : Digital Theater Systems
  46. Commercial name                          : DTS-HD Master Audio
  47. Codec ID                                 : A_DTS
  48. Duration                                 : 1 h 38 min
  49. Bit rate mode                            : Variable
  50. Bit rate                                 : 4 345 kb/s
  51. Channel(s)                               : 6 channels
  52. Channel layout                           : C L R Ls Rs LFE
  53. Sampling rate                            : 48.0 kHz
  54. Frame rate                               : 93.750 FPS (512 SPF)
  55. Bit depth                                : 24 bits
  56. Compression mode                         : Lossless
  57. Stream size                              : 2.99 GiB (36%)
  58. Title                                    : Korean DTS-HD Master Audio 5.1 @ 4345 kbps
  59. Language                                 : Korean
  60. Default                                  : Yes
  61. Forced                                   : No
  62. Text #1
  63. ID                                       : 3
  64. Format                                   : PGS
  65. Codec ID                                 : S_HDMV/PGS
  66. Codec ID/Info                            : Picture based subtitle format used on BDs/HD-DVDs
  67. Duration                                 : 1 h 33 min
  68. Bit rate                                 : 23.4 kb/s
  69. Count of elements                        : 1851
  70. Stream size                              : 15.7 MiB (0%)
  71. Title                                    : Eng/SUP
  72. Language                                 : English
  73. Default                                  : No
  74. Forced                                   : No
  75. Text #2
  76. ID                                       : 4
  77. Format                                   : PGS
  78. Codec ID                                 : S_HDMV/PGS
  79. Codec ID/Info                            : Picture based subtitle format used on BDs/HD-DVDs
  80. Duration                                 : 1 h 31 min
  81. Bit rate                                 : 18.1 kb/s
  82. Count of elements                        : 1675
  83. Stream size                              : 11.9 MiB (0%)
  84. Title                                    : Chs/SUP  简体
  85. Language                                 : Chinese
  86. Default                                  : Yes
  87. Forced                                   : No
  88. Text #3
  89. ID                                       : 5
  90. Format                                   : PGS
  91. Codec ID                                 : S_HDMV/PGS
  92. Codec ID/Info                            : Picture based subtitle format used on BDs/HD-DVDs
  93. Duration                                 : 1 h 31 min
  94. Bit rate                                 : 18.9 kb/s
  95. Count of elements                        : 1675
  96. Stream size                              : 12.4 MiB (0%)
  97. Title                                    : Cht/SUP  繁体
  98. Language                                 : Chinese
  99. Default                                  : No
  100. Forced                                   : No
  101. Menu
  102. 00:00:00.000                             : en:第 01 章
  103. 00:06:40.817                             : en:第 02 章
  104. 00:11:06.207                             : en:第 03 章
  105. 00:19:51.107                             : en:第 04 章
  106. 00:25:23.731                             : en:第 05 章
  107. 00:29:54.584                             : en:第 06 章
  108. 00:34:37.534                             : en:第 07 章
  109. 00:39:34.831                             : en:第 08 章
  110. 00:44:17.280                             : en:第 09 章
  111. 00:50:23.896                             : en:第 10 章
  112. 00:55:51.848                             : en:第 11 章
  113. 01:02:44.886                             : en:第 12 章
  114. 01:13:49.342                             : en:第 13 章
  115. 01:19:30.057                             : en:第 14 章
  116. 01:26:37.234                             : en:第 15 章
  117. 01:32:12.819                             : en:第 16 章





此处一般会放置磁力链或种子下载链接,不过此链接需要注册会员才能看到,点击“立即注册”
磁力链下载【下载链接仅对注册会员开放,登陆后可见】
BT9527电影天堂 1、BT9527电影天堂提供的BT文件均来源于互联网抓取,只供网友学习交流、技术提升使用。
2、我们遵守BitTorrent点对点协议原则,任何版权问题请联系原资源发布商,我们不处理任何版权纠纷,谢谢!如有争议请联系邮箱:BT9527#hotmail.com(#换成@)
3、如果您发现某页面或地址有错误,请联系站长邮箱BT9527#hotmail.com(#换成@),我们会尽快处理。您的热心是对BT9527电影天堂最大的支持。
4、本站建议去正规影院观看电影以支持电影行业发展。
最新回复 (0)

你可以在 登录 or 注册 后,对此帖发表评论!

返回
发新帖