贵族大盗[国英多音轨/简繁英字幕].Mortdecai.2015.BluRay.1080p.DTS-HD.MA.5.1.3Audio.x265.10bit-CTRLHD 7.98GB

版主小s 17天前 27

✔资源类型:暂未分类   ✔电影年份:2015   ✔电影地区:欧美   ✔电影分类:喜剧

◎译  名 贵族大盗 / 华丽怪盗(港) / 神鬼大盗(台) / 摩迪凯 / 莫迪凯
◎片  名 Mortdecai
◎年  代 2015
◎产  地 美国 / 英国
◎类  别 喜剧 / 动作
◎语  言 英语
◎上映日期 2015-04-17(中国大陆) / 2015-01-23(美国)
◎IMDb链接 https://www.imdb.com/title/tt3045616/
◎豆瓣评分 5.4/10 (26820人评价)
◎豆瓣链接 https://movie.douban.com/subject/24872023/
◎片  长 107分钟
◎导  演 大卫·凯普 David Koepp (id:1019071)
◎编  剧 艾里克·阿伦森 Eric Aronson (id:1346544)
       卡里尔·邦飞利 Kyril Bonfiglioli (id:1346543)
◎演  员 约翰尼·德普 Johnny Depp (id:1054456)
       格温妮斯·帕特洛 Gwyneth Paltrow (id:1018985)
       保罗·贝坦尼 Paul Bettany (id:1003482)
       伊万·麦克格雷格 Ewan McGregor (id:1012532)
       奥立薇娅·玛恩 Olivia Munn (id:1009303)
       约翰尼·帕斯沃尔斯基 Jonny Pasvolsky (id:1126920)
       迈克尔·卡尔金 Michael Culkin (id:1338040)
       乌尔里奇·汤姆森 Ulrich Thomsen (id:1036598)
       亚历克·乌特戈夫 Alec Utgoff (id:1346542)
       罗伯·德·格鲁特 Rob de Groot (id:1346541)
       盖·布耐特 Guy Burnet (id:1022992)
       杰夫·高布伦 Jeff Goldblum (id:1025109)
       安蒂·哈卡拉 Antti Hakala (id:1346540)
       保罗·怀特豪斯 Paul Whitehouse (id:1044984)
       诺尔玛·阿塔拉 Norma Atallah (id:1346539)
       瑞奇·查普 Ricky Champ (id:1348092)
       奥斯汀·利昂 Austin Lyon (id:1354162)
       斯科特·谢尔登 Scott Sheldon (id:1412683)
       尼古拉斯·法瑞尔 Nicholas Farrell (id:1314355)
       奥利弗·普莱特 Oliver Platt (id:1013849)
       迈克尔·伯恩 Michael Byrne (id:1077558)
        Ashley Williams (id:1262254)
       奥布瑞·普拉扎 Aubrey Plaza (id:1009271)
       布莱恩·奥克斯 Bryan Okes (id:1472429)
       约翰尼·德普 Johnny Depp (id:1054456)
       露丝·迈尔斯 Ruth Myers (id:1292826)

◎简  介
  表面看来,查理(约翰尼·德普 Johnny Depp 饰)是一位事业有成,春风得意的艺术品商人,家中有娇妻乔安娜(格温妮丝·帕特洛 Gwyneth Paltrow 饰)坐镇,日子过的如鱼得水。然而,他有着一个不为人知的秘密,每当夜幕降临,查理便会摇身一变,成为专门偷窃艺术品的大盗,这双重身份由来已久,却也从未露出过马脚。                                    
                                某日,一名专门修复戈雅作品的画匠无故死亡,他手中的天价艺术品神秘失踪,当局悬赏巨额,希望能够寻回此画,这赏金后头的一连串“零”让查理不由得心动起来,遂和搭档展开了一场充满了刺激和危险的旅途。在应付一连串怪人的同时,查理亦要提防名为马特兰(伊万·麦克格雷格 Ewan McGregor 饰)的男子,因为他不仅是英国军情五处的探员,还是同查理积怨已久的情敌。

◎获奖情况 (共8项)
  第36届金酸莓奖 (2016)
  最差男主角(提名)
   └──约翰尼·德普 (id:1054456)
  最差女主角(提名)
   └──格温妮斯·帕特洛 (id:1018985)
  最差银幕搭档(提名)
   └──约翰尼·德普 (id:1054456)

  第2届豆瓣电影年度榜单 (2015)
  评分最低的外语电影(提名)

  第6届豆瓣电影鑫像奖 (2016)
  豆渣单元 最渣影片(外语)(提名)
  豆渣单元 最渣导演(外语)(提名)
   └──大卫·凯普 (id:1019071)
  豆渣单元 最渣男演员(外语)
   └──约翰尼·德普 (id:1054456)
  豆渣单元 最渣女演员(外语)(提名)
   └──格温妮斯·帕特洛 (id:1018985)

  1. ##### MediaInfo ######
  2. General
  3. Unique ID                                : 271524685433938284522956031450557274354 (0xCC45C09242A138A1B84DEF49D9F958F2)
  4. Complete name                            : Mortdecai.2015.BluRay.1080p.DTS-HD.MA.5.1.3Audio.x265.10bit-CTRLHD.mkv
  5. Format                                   : Matroska
  6. Format version                           : Version 4
  7. File size                                : 7.98 GiB
  8. Duration                                 : 1 h 46 min
  9. Overall bit rate mode                    : Variable
  10. Overall bit rate                         : 10.7 Mb/s
  11. Encoded date                             : UTC 2022-06-09 02:00:13
  12. Writing application                      : mkvmerge v68.0.0 ('The Curtain') 64-bit
  13. Writing library                          : libebml v1.4.2 + libmatroska v1.6.4
  14. Video
  15. ID                                       : 1
  16. Format                                   : HEVC
  17. Format/Info                              : High Efficiency Video Coding
  18. Format profile                           : Main 10@L4@Main
  19. Codec ID                                 : V_MPEGH/ISO/HEVC
  20. Duration                                 : 1 h 46 min
  21. Bit rate                                 : 7 041 kb/s
  22. Width                                    : 1 920 pixels
  23. Height                                   : 800 pixels
  24. Display aspect ratio                     : 2.40:1
  25. Frame rate mode                          : Constant
  26. Frame rate                               : 23.976 (24000/1001/53354) FPS
  27. Original frame rate                      : 23.976 (23976/1000/53354) FPS
  28. Color space                              : YUV
  29. Chroma subsampling                       : 4:2:0
  30. Bit depth                                : 10 bits
  31. Bits/(Pixel*Frame)                       : 0.191
  32. Stream size                              : 5.25 GiB (66%)
  33. Writing library                          : x265 2.7+15-b9f5b5d7bf95:[Windows][MSVC 1800][64 bit] 10bit
  34. Encoding settings                        : cpuid=533541173503 / frame-threads=4 / numa-pools=20 / wpp / no-pmode / no-pme / no-psnr / no-ssim / log-level=2 / input-csp=1 / input-res=1920x800 / interlace=0 / total-frames=0 / level-idc=0 / high-tier=1 / uhd-bd=0 / ref=6 / no-allow-non-conformance / repeat-headers / annexb / no-aud / no-hrd / info / hash=0 / no-temporal-layers / no-open-gop / min-keyint=23 / keyint=250 / gop-lookahead=0 / bframes=8 / b-adapt=2 / b-pyramid / bframe-bias=0 / rc-lookahead=24 / lookahead-slices=5 / NTMzNTQ=uuDQuD2mJt9fsCf / scenecut=40 / radl=0 / no-intra-refresh / ctu=64 / min-cu-size=8 / no-rect / no-amp / max-tu-size=32 / tu-inter-depth=1 / tu-intra-depth=1 / limit-tu=0 / rdoq-level=0 / dynamic-rd=0.00 / no-ssim-rd / signhide / no-tskip / nr-intra=0 / nr-inter=0 / no-constrained-intra / no-strong-intra-smoothing / max-merge=2 / limit-refs=3 / no-limit-modes / me=2 / subme=7 / merange=48 / temporal-mvp / weightp / weightb / no-analyze-src-pics / deblock=0:0 / sao / no-sao-non-deblock / rd=4 / no-early-skip / rskip / no-fast-intra / no-tskip-fast / no-cu-lossless / no-b-intra / no-splitrd-skip / rdpenalty=0 / psy-rd=2.00 / psy-rdoq=0.00 / no-rd-refine / no-lossless / cbqpoffs=0 / crqpoffs=0 / rc=crf / crf=17.0 / qcomp=0.60 / qpstep=4 / stats-write=0 / stats-read=0 / ipratio=1.40 / pbratio=1.30 / aq-mode=3 / aq-strength=1.00 / cutree / zone-count=0 / no-strict-cbr / qg-size=32 / no-rc-grain / qpmax=69 / qpmin=0 / no-const-vbv / sar=0 / overscan=0 / videoformat=5 / range=0 / colorprim=2 / transfer=2 / colormatrix=2 / chromaloc=0 / display-window=0 / max-cll=0,0 / min-luma=0 / max-luma=1023 / log2-max-poc-lsb=8 / vui-timing-info / vui-hrd-info / slices=1 / no-opt-qp-pps / no-opt-ref-list-length-pps / no-multi-pass-opt-rps / scenecut-bias=0.05 / no-opt-cu-delta-qp / aq-motion / no-hdr / no-hdr-opt / no-dhdr10-opt / no-idr-recovery-sei / analysis-reuse-level=5 / scale-factor=0 / refine-intra=0 / refine-inter=0 / refine-mv=0 / no-limit-sao / ctu-info=0 / no-lowpass-dct / refine-mv-type=0 / copy-pic=1 / max-ausize-factor=1.0 / no-dynamic-refine
  35. Default                                  : Yes
  36. Forced                                   : No
  37. Audio #1
  38. ID                                       : 2
  39. Format                                   : DTS XLL
  40. Format/Info                              : Digital Theater Systems
  41. Commercial name                          : DTS-HD Master Audio
  42. Codec ID                                 : A_DTS
  43. Duration                                 : 1 h 46 min
  44. Bit rate mode                            : Variable
  45. Bit rate                                 : 2 305 kb/s
  46. Channel(s)                               : 6 channels
  47. Channel layout                           : C L R Ls Rs LFE
  48. Sampling rate                            : 48.0 kHz
  49. Frame rate                               : 93.750 FPS (512 SPF)
  50. Bit depth                                : 16 bits
  51. Compression mode                         : Lossless
  52. Stream size                              : 1.72 GiB (22%)
  53. Language                                 : English
  54. Default                                  : Yes
  55. Forced                                   : No
  56. Audio #2
  57. ID                                       : 3
  58. Format                                   : AC-3
  59. Format/Info                              : Audio Coding 3
  60. Commercial name                          : Dolby Digital
  61. Codec ID                                 : A_AC3
  62. Duration                                 : 1 h 46 min
  63. Bit rate mode                            : Constant
  64. Bit rate                                 : 640 kb/s
  65. Channel(s)                               : 6 channels
  66. Channel layout                           : L R C LFE Ls Rs
  67. Sampling rate                            : 48.0 kHz
  68. Frame rate                               : 31.250 FPS (1536 SPF)
  69. Compression mode                         : Lossy
  70. Stream size                              : 488 MiB (6%)
  71. Title                                    : 中影公映
  72. Language                                 : Chinese
  73. Service kind                             : Complete Main
  74. Default                                  : Yes
  75. Forced                                   : No
  76. Audio #3
  77. ID                                       : 4
  78. Format                                   : AC-3
  79. Format/Info                              : Audio Coding 3
  80. Commercial name                          : Dolby Digital
  81. Codec ID                                 : A_AC3
  82. Duration                                 : 1 h 46 min
  83. Bit rate mode                            : Constant
  84. Bit rate                                 : 640 kb/s
  85. Channel(s)                               : 2 channels
  86. Channel layout                           : L R
  87. Sampling rate                            : 48.0 kHz
  88. Frame rate                               : 31.250 FPS (1536 SPF)
  89. Compression mode                         : Lossy
  90. Delay relative to video                  : 20 ms
  91. Stream size                              : 488 MiB (6%)
  92. Title                                    : 央视
  93. Language                                 : Chinese
  94. Service kind                             : Complete Main
  95. Default                                  : Yes
  96. Forced                                   : No
  97. Text #1
  98. ID                                       : 5
  99. Format                                   : PGS
  100. Muxing mode                              : zlib
  101. Codec ID                                 : S_HDMV/PGS
  102. Codec ID/Info                            : Picture based subtitle format used on BDs/HD-DVDs
  103. Duration                                 : 1 min 11 s
  104. Bit rate                                 : 23.8 kb/s
  105. Count of elements                        : 13
  106. Stream size                              : 208 KiB (0%)
  107. Language                                 : English
  108. Default                                  : Yes
  109. Forced                                   : No
  110. Text #2
  111. ID                                       : 6
  112. Format                                   : PGS
  113. Muxing mode                              : zlib
  114. Codec ID                                 : S_HDMV/PGS
  115. Codec ID/Info                            : Picture based subtitle format used on BDs/HD-DVDs
  116. Duration                                 : 1 h 37 min
  117. Bit rate                                 : 60.1 kb/s
  118. Count of elements                        : 2659
  119. Stream size                              : 41.8 MiB (1%)
  120. Title                                    : CHS&ENG
  121. Language                                 : Chinese
  122. Default                                  : Yes
  123. Forced                                   : No
  124. Text #3
  125. ID                                       : 7
  126. Format                                   : PGS
  127. Muxing mode                              : zlib
  128. Codec ID                                 : S_HDMV/PGS
  129. Codec ID/Info                            : Picture based subtitle format used on BDs/HD-DVDs
  130. Duration                                 : 1 h 37 min
  131. Bit rate                                 : 60.4 kb/s
  132. Count of elements                        : 2659
  133. Stream size                              : 42.0 MiB (1%)
  134. Title                                    : CHT&ENG
  135. Language                                 : Chinese
  136. Default                                  : Yes
  137. Forced                                   : No
  138. Text #4
  139. ID                                       : 8
  140. Format                                   : PGS
  141. Muxing mode                              : zlib
  142. Codec ID                                 : S_HDMV/PGS
  143. Codec ID/Info                            : Picture based subtitle format used on BDs/HD-DVDs
  144. Duration                                 : 1 h 37 min
  145. Bit rate                                 : 33.9 kb/s
  146. Count of elements                        : 2657
  147. Stream size                              : 23.6 MiB (0%)
  148. Title                                    : CHS
  149. Language                                 : Chinese
  150. Default                                  : Yes
  151. Forced                                   : No
  152. Text #5
  153. ID                                       : 9
  154. Format                                   : PGS
  155. Muxing mode                              : zlib
  156. Codec ID                                 : S_HDMV/PGS
  157. Codec ID/Info                            : Picture based subtitle format used on BDs/HD-DVDs
  158. Duration                                 : 1 h 37 min
  159. Bit rate                                 : 34.2 kb/s
  160. Count of elements                        : 2657
  161. Stream size                              : 23.8 MiB (0%)
  162. Title                                    : CHT
  163. Language                                 : Chinese
  164. Default                                  : Yes
  165. Forced                                   : No
  166. Menu
  167. 00:00:00.000                             : en:第 01 章
  168. 00:05:04.179                             : en:第 02 章
  169. 00:11:31.232                             : en:第 03 章
  170. 00:18:52.548                             : en:第 04 章
  171. 00:24:04.151                             : en:第 05 章
  172. 00:29:49.496                             : en:第 06 章
  173. 00:36:55.797                             : en:第 07 章
  174. 00:42:51.611                             : en:第 08 章
  175. 00:50:03.375                             : en:第 09 章
  176. 00:56:39.688                             : en:第 10 章
  177. 01:03:47.699                             : en:第 11 章
  178. 01:10:07.245                             : en:第 12 章
  179. 01:18:45.304                             : en:第 13 章
  180. 01:24:56.425                             : en:第 14 章
  181. 01:28:58.083                             : en:第 15 章
  182. 01:33:49.249                             : en:第 16 章





此处一般会放置磁力链或种子下载链接,不过此链接需要注册会员才能看到,点击“立即注册”
磁力链下载【下载链接仅对注册会员开放,登陆后可见】
BT9527电影天堂 1、BT9527电影天堂提供的BT文件均来源于互联网抓取,只供网友学习交流、技术提升使用。
2、我们遵守BitTorrent点对点协议原则,任何版权问题请联系原资源发布商,我们不处理任何版权纠纷,谢谢!如有争议请联系邮箱:BT9527#hotmail.com(#换成@)
3、如果您发现某页面或地址有错误,请联系站长邮箱BT9527#hotmail.com(#换成@),我们会尽快处理。您的热心是对BT9527电影天堂最大的支持。
4、本站建议去正规影院观看电影以支持电影行业发展。
最新回复 (0)

你可以在 登录 or 注册 后,对此帖发表评论!

返回
发新帖