美国诉比莉·哈乐黛[简繁英字幕].The.United.States.vs.Billie.Holiday.2021.BluRay.1080p.DTS.HDMA5.1.x265.10bit-CTRLHD 7.73GB

版主小s 3月前 150

✔资源类型:暂未分类   ✔电影年份:2021   ✔电影地区:欧美   ✔电影分类:剧情

◎译  名 美国诉比莉·哈乐黛 / 美国与比莉·哈乐黛 / 美国与比莉·荷莉戴
◎片  名 The United States vs. Billie Holiday
◎年  代 2021
◎产  地 美国
◎类  别 剧情 / 音乐 / 传记
◎语  言 英语
◎上映日期 2021-02-26(美国网络)
◎IMDb链接 https://www.imdb.com/title/tt8521718/
◎豆瓣评分 6.0/10 (953人评价)
◎豆瓣链接 https://movie.douban.com/subject/30242044/
◎片  长 130分钟(美国)
◎导  演 李·丹尼尔斯 Lee Daniels (id:1014037)
◎编  剧 苏珊-洛丽·帕克斯 Suzan-Lori Parks (id:1128105)
       约翰·哈里 Johann Hari (id:1452601)
◎演  员 安德拉·戴 Andra Day (id:1382520)
       崔凡特·罗兹 Trevante Rhodes (id:1340760)
       加内特·赫德兰 Garrett Hedlund (id:1047958)
       娜塔莎·雷昂 Natasha Lyonne (id:1000096)
       泰勒·詹姆斯·威廉姆 Tyler James Williams (id:1027282)
       托恩·贝尔 Tone Bell (id:1352556)
       罗布·摩根 Rob Morgan (id:1360285)
       丹娜·格瑞尔 Dana Gourrier (id:1338882)
       达明·乔伊·伦道夫 Da'Vine Joy Randolph (id:1365682)
       伊万·罗斯 Evan Ross (id:1181459)
       梅尔文·格雷格 Melvin Gregg (id:1401103)
       埃里克·拉雷·哈维 Erik LaRay Harvey (id:1387220)
       崔斯坦·D·拉勒 Tristan D. Lalla (id:1204506)
       夸西·宋桂 Kwasi Songui (id:1339534)
       艾丽嘉·奥特雷恩 Alika Autran (id:1388200)
       乔·柯布登  Joe Cobden (id:1078237)
       亚瑟·霍尔顿 Arthur Holden (id:1374236)
       乔纳森·希金斯 Jonathan Higgins (id:1325592)
       杰夫·科贝特 Jeff Corbett (id:1371172)
       卡尔·格拉戈萨斯 Karl Graboshas (id:1397486)
       阿莱恩·古勒姆 Alain Goulem (id:1091375)
       马克·安东尼·克鲁帕 Mark Antony Krupa (id:1441646)
       杜桑恩·杜基齐 Dusan Dukic (id:1322852)
       西尔维亚·斯图尔特 Sylvia Stewart (id:1152347)
       凯瑟琳·勒米厄 Catherine Lemieux (id:1337403)
       西蒙·阿兰 Simon Alain (id:1387717)
       莱斯利·乔丹 Leslie Jordan (id:1048235)
       利蒂希娅·布鲁克斯 Letitia Brookes (id:1455230)
       密斯·劳伦斯 Miss Lawrence (id:1455235)
       弗利·麦克 Furly Mac (id:1455237)
       李·丹尼尔斯 Lee Daniels (id:1014037)
       克里斯·鲍尔斯 Kris Bowers (id:1411772)
       安德鲁·邓恩 Andrew Dunn (id:1282816)
       杰伊·拉比诺维茨 Jay Rabinowitz (id:1295114)

◎简  介
  讲述她被美国联邦麻醉品管理局派卧底设局,黑人特工Jimmy Fletcher领导此行动,与荷莉戴展开了一场热烈的情事,展现她挣扎于药瘾、名声和让人心碎的爱情。

◎获奖情况 (共6项)
  第78届金球奖 (2021)
  电影类 剧情片最佳女主角
   └──安德拉·戴 (id:1382520)
  电影类 最佳原创歌曲(提名)

  第8届美国化妆及发型设计工会奖 (2021)
  电影类最佳特效化妆(提名)

  第26届美国评论家选择电影奖 (2021)
  最佳女主角(提名)
   └──安德拉·戴 (id:1382520)
  最佳歌曲(提名)
  最佳发型化妆(提名)

  1. ##### MediaInfo ######
  2. General
  3. Unique ID                                : 272006457102483997736063073232398177802 (0xCCA289BF9CFB8EF9213CB3E6038DD60A)
  4. Complete name                            : The.United.States.vs.Billie.Holiday.2021.BluRay.1080p.DTS.HDMA5.1.x265.10bit-CTRLHD.mkv
  5. Format                                   : Matroska
  6. Format version                           : Version 4
  7. File size                                : 7.73 GiB
  8. Duration                                 : 2 h 11 min
  9. Overall bit rate mode                    : Variable
  10. Overall bit rate                         : 8 447 kb/s
  11. Encoded date                             : UTC 2022-06-09 10:54:19
  12. Writing application                      : mkvmerge v68.0.0.15 ('The Curtain') 64-bit
  13. Writing library                          : libebml v1.4.2 + libmatroska v1.6.4
  14. Video
  15. ID                                       : 1
  16. Format                                   : HEVC
  17. Format/Info                              : High Efficiency Video Coding
  18. Format profile                           : Main 10@L4@Main
  19. Codec ID                                 : V_MPEGH/ISO/HEVC
  20. Duration                                 : 2 h 11 min
  21. Bit rate                                 : 4 734 kb/s
  22. Width                                    : 1 920 pixels
  23. Height                                   : 800 pixels
  24. Display aspect ratio                     : 2.40:1
  25. Frame rate mode                          : Constant
  26. Frame rate                               : 24.000 FPS
  27. Color space                              : YUV
  28. Chroma subsampling                       : 4:2:0
  29. Bit depth                                : 10 bits
  30. Bits/(Pixel*Frame)                       : 0.128
  31. Stream size                              : 4.33 GiB (56%)
  32. Writing library                          : x265 3.5+36-9b59d4554:[Windows][GCC 11.2.0][64 bit] 10bit
  33. Encoding settings                        : cpuid=533541111039 / frame-threads=5 / numa-pools=32 / wpp / no-pmode / no-pme / no-psnr / no-ssim / log-level=2 / input-csp=1 / input-res=1920x800 / interlace=0 / total-frames=0 / level-idc=0 / high-tier=1 / uhd-bd=0 / ref=6 / no-allow-non-conformance / no-repeat-headers / annexb / no-aud / no-eob / no-eos / no-hrd / info / hash=0 / no-temporal-layers / no-open-gop / min-keyint=24 / keyint=250 / gop-lookahead=0 / bframes=12 / b-adapt=2 / b-pyramid / bframe-bias=0 / rc-lookahead=48 / lookahead-slices=5 / NTMzNTQ=uuDQuD2mJt9fsCf / scenecut=40 / no-hist-scenecut / radl=0 / no-splice / no-intra-refresh / ctu=64 / min-cu-size=8 / rect / amp / max-tu-size=32 / tu-inter-depth=1 / tu-intra-depth=1 / limit-tu=0 / rdoq-level=0 / dynamic-rd=0.00 / no-ssim-rd / signhide / no-tskip / nr-intra=0 / nr-inter=0 / no-constrained-intra / no-strong-intra-smoothing / max-merge=3 / limit-refs=1 / no-limit-modes / me=3 / subme=7 / merange=64 / temporal-mvp / no-frame-dup / no-hme / weightp / weightb / no-analyze-src-pics / deblock=0:0 / no-sao / no-sao-non-deblock / rd=4 / selective-sao=0 / early-skip / rskip / no-fast-intra / no-tskip-fast / no-cu-lossless / b-intra / no-splitrd-skip / rdpenalty=0 / psy-rd=2.00 / psy-rdoq=0.00 / no-rd-refine / no-lossless / cbqpoffs=0 / crqpoffs=0 / rc=crf / crf=16.0 / qcomp=0.60 / qpstep=4 / stats-write=0 / stats-read=0 / ipratio=1.40 / pbratio=1.30 / aq-mode=1 / aq-strength=1.00 / cutree / zone-count=0 / no-strict-cbr / qg-size=32 / no-rc-grain / qpmax=69 / qpmin=0 / no-const-vbv / sar=0 / overscan=0 / videoformat=5 / range=0 / colorprim=2 / transfer=2 / colormatrix=2 / chromaloc=0 / display-window=0 / cll=0,0 / min-luma=0 / max-luma=1023 / log2-max-poc-lsb=8 / vui-timing-info / vui-hrd-info / slices=1 / no-opt-qp-pps / no-opt-ref-list-length-pps / no-multi-pass-opt-rps / scenecut-bias=0.05 / hist-threshold=0.03 / no-opt-cu-delta-qp / aq-motion / no-hdr10 / no-hdr10-opt / no-dhdr10-opt / no-idr-recovery-sei / analysis-reuse-level=0 / analysis-save-reuse-level=0 / analysis-load-reuse-level=0 / scale-factor=0 / refine-intra=0 / refine-inter=0 / refine-mv=1 / refine-ctu-distortion=0 / no-limit-sao / ctu-info=0 / no-lowpass-dct / refine-analysis-type=0 / copy-pic=1 / max-ausize-factor=1.0 / no-dynamic-refine / no-single-sei / no-hevc-aq / no-svt / no-field / qp-adaptation-range=1.00 / scenecut-aware-qp=0conformance-window-offsets / right=0 / bottom=0 / NTMzNTQ= / decoder-max-rate=0 / no-vbv-live-multi-pass
  34. Default                                  : Yes
  35. Forced                                   : No
  36. Audio
  37. ID                                       : 2
  38. ID in the original source medium         : 4353 (0x1101)
  39. Format                                   : DTS XLL
  40. Format/Info                              : Digital Theater Systems
  41. Commercial name                          : DTS-HD Master Audio
  42. Codec ID                                 : A_DTS
  43. Duration                                 : 2 h 11 min
  44. Bit rate mode                            : Variable
  45. Bit rate                                 : 3 638 kb/s
  46. Channel(s)                               : 6 channels
  47. Channel layout                           : C L R Ls Rs LFE
  48. Sampling rate                            : 48.0 kHz
  49. Frame rate                               : 93.750 FPS (512 SPF)
  50. Bit depth                                : 24 bits
  51. Compression mode                         : Lossless
  52. Stream size                              : 3.33 GiB (43%)
  53. Language                                 : English
  54. Default                                  : Yes
  55. Forced                                   : No
  56. Original source medium                   : Blu-ray
  57. Text #1
  58. ID                                       : 3
  59. ID in the original source medium         : 4610 (0x1202)
  60. Format                                   : PGS
  61. Muxing mode                              : zlib
  62. Codec ID                                 : S_HDMV/PGS
  63. Codec ID/Info                            : Picture based subtitle format used on BDs/HD-DVDs
  64. Duration                                 : 2 h 2 min
  65. Bit rate                                 : 952 b/s
  66. Count of elements                        : 72
  67. Stream size                              : 855 KiB (0%)
  68. Title                                    : ENG
  69. Language                                 : English
  70. Default                                  : Yes
  71. Forced                                   : No
  72. Original source medium                   : Blu-ray
  73. Text #2
  74. ID                                       : 4
  75. ID in the original source medium         : 4611 (0x1203)
  76. Format                                   : PGS
  77. Muxing mode                              : zlib
  78. Codec ID                                 : S_HDMV/PGS
  79. Codec ID/Info                            : Picture based subtitle format used on BDs/HD-DVDs
  80. Duration                                 : 2 h 10 min
  81. Bit rate                                 : 45.0 kb/s
  82. Count of elements                        : 3320
  83. Stream size                              : 41.9 MiB (1%)
  84. Title                                    : CHS&ENG
  85. Language                                 : Chinese
  86. Default                                  : Yes
  87. Forced                                   : No
  88. Original source medium                   : Blu-ray
  89. Text #3
  90. ID                                       : 5
  91. ID in the original source medium         : 4612 (0x1204)
  92. Format                                   : PGS
  93. Muxing mode                              : zlib
  94. Codec ID                                 : S_HDMV/PGS
  95. Codec ID/Info                            : Picture based subtitle format used on BDs/HD-DVDs
  96. Duration                                 : 2 h 10 min
  97. Bit rate                                 : 29.0 kb/s
  98. Count of elements                        : 3317
  99. Stream size                              : 27.0 MiB (0%)
  100. Title                                    : CHS
  101. Language                                 : Chinese
  102. Default                                  : Yes
  103. Forced                                   : No
  104. Original source medium                   : Blu-ray
  105. Text #4
  106. ID                                       : 6
  107. ID in the original source medium         : 4613 (0x1205)
  108. Format                                   : PGS
  109. Muxing mode                              : zlib
  110. Codec ID                                 : S_HDMV/PGS
  111. Codec ID/Info                            : Picture based subtitle format used on BDs/HD-DVDs
  112. Duration                                 : 2 h 10 min
  113. Bit rate                                 : 45.5 kb/s
  114. Count of elements                        : 3320
  115. Stream size                              : 42.4 MiB (1%)
  116. Title                                    : CHT&ENG
  117. Language                                 : Chinese
  118. Default                                  : Yes
  119. Forced                                   : No
  120. Original source medium                   : Blu-ray
  121. Text #5
  122. ID                                       : 7
  123. ID in the original source medium         : 4614 (0x1206)
  124. Format                                   : PGS
  125. Muxing mode                              : zlib
  126. Codec ID                                 : S_HDMV/PGS
  127. Codec ID/Info                            : Picture based subtitle format used on BDs/HD-DVDs
  128. Duration                                 : 2 h 10 min
  129. Bit rate                                 : 29.5 kb/s
  130. Count of elements                        : 3317
  131. Stream size                              : 27.5 MiB (0%)
  132. Title                                    : CHT
  133. Language                                 : Chinese
  134. Default                                  : Yes
  135. Forced                                   : No
  136. Original source medium                   : Blu-ray
  137. Menu
  138. 00:00:00.000                             : en:??? 01 ???





此处一般会放置磁力链或种子下载链接,不过此链接需要注册会员才能看到,点击“立即注册”
磁力链下载【下载链接仅对注册会员开放,登陆后可见】
BT9527电影天堂 1、BT9527电影天堂提供的BT文件均来源于互联网抓取,只供网友学习交流、技术提升使用。
2、我们遵守BitTorrent点对点协议原则,任何版权问题请联系原资源发布商,我们不处理任何版权纠纷,谢谢!如有争议请联系邮箱:BT9527#hotmail.com(#换成@)
3、如果您发现某页面或地址有错误,请联系站长邮箱BT9527#hotmail.com(#换成@),我们会尽快处理。您的热心是对BT9527电影天堂最大的支持。
4、本站建议去正规影院观看电影以支持电影行业发展。
最新回复 (0)

你可以在 登录 or 注册 后,对此帖发表评论!

返回
发新帖