99.9刑事专业律师 电影版[简繁字幕].99.9.Criminal.Lawyer.The.Movie.2021.1080p.BluRay.x265.10bit.DTS-HomeHD 5.46GB

版主小s 11天前 97

✔资源类型:暂未分类   ✔电影年份:2021   ✔电影地区:日本   ✔电影分类:悬疑

◎译  名 99.9:刑事专业律师 电影版 / 99.9不可能的翻案The MOVIE / 电影版 99.9 不可能的翻案(台)
◎片  名 99.9-刑事専門弁護士-THE MOVIE
◎年  代 2021
◎产  地 日本
◎类  别 悬疑 / 犯罪
◎语  言 日语
◎上映日期 2021-12-30(日本)
◎IMDb链接 https://www.imdb.com/title/tt15434284/
◎豆瓣评分 7.3/10 (537人评价)
◎豆瓣链接 https://movie.douban.com/subject/35371618/
◎片  长 120分钟
◎导  演 木村尚 Hisashi Kimura (id:1323466)
◎编  剧 三浦骏斗 Hayato Miura (id:1377419)
◎演  员 松本润 Jun Matsumoto (id:1050319)
       香川照之 Teruyuki Kagawa (id:1037221)
       杉咲花 Hana Sugisaki (id:1318811)
       片桐仁 Jin Katagiri (id:1332520)
       儿岛雄一 Magy (id:1359861)
       马场园梓 Azusa Babazono (id:1345459)
       马场彻 Toru Baba (id:1315958)
       西岛秀俊 Hidetoshi Nishijima (id:1001042)
       道枝骏佑 Shunsuke Michieda (id:1371083)
       莳田彩珠 Aju Makita (id:1324533)
       高桥克实 Katsumi Takahashi (id:1315303)
       涩川清彦 Kiyohiko Shibukawa (id:1011362)
       石桥莲司 Renji Ishibashi (id:1054279)
       荣仓奈奈 Nana Eikura (id:1006036)
       岸部一德 Ittoku Kishibe (id:1016878)
       木村文乃 Fumino Kimura (id:1315257)
       奥田瑛二 Eiji Okuda (id:1033105)
       青木崇高 Munetaka Aoki (id:1318594)
       笑福亭鹤瓶 Tsurubei Shofukutei (id:1275493)
       映美藏良 Kurara Emi (id:1318737)
       池田贵史 Takafumi Ikeda (id:1359860)
       岸井雪乃 Yukino Kishii (id:1338013)
       畑芽育 Mei Hata (id:1412076)

◎简  介
  刑事案件的审判有罪率99.9%——在绝对不可能反转的状况中,拘泥被留下的0.1%的可能性追求事实!                                    
                                在日本如果被起诉,99.9%会被判有罪!但是古怪的深山大翔认为只要找出真相,纵使清白机率只有0.1%就有逆转翻案的可能.
  1. ##### MediaInfo ######
  2. General
  3. Unique ID                                : 166574453642578856050136080401499410258 (0x7D5112A4984A4A4A556CBEB122CBCF52)
  4. Complete name                            : 99.9.Criminal.Lawyer.The.Movie.2021.1080p.BluRay.x265.10bit.DTS-HomeHD.mkv
  5. Format                                   : Matroska
  6. Format version                           : Version 4
  7. File size                                : 5.46 GiB
  8. Duration                                 : 2 h 0 min
  9. Overall bit rate                         : 6 510 kb/s
  10. Movie name                               : 99.9 Criminal Lawyer: The Movie
  11. Encoded date                             : UTC 2022-06-12 14:12:31
  12. Writing application                      : mkvmerge v68.0.0 ('The Curtain') 64-bit
  13. Writing library                          : libebml v1.4.2 + libmatroska v1.6.4
  14. Attachments                              : FangZhengKaiTi-GBK-1.ttf / 华康华综体.ttf
  15. Video
  16. ID                                       : 1
  17. Format                                   : HEVC
  18. Format/Info                              : High Efficiency Video Coding
  19. Format profile                           : Main 10@L5@Main
  20. Codec ID                                 : V_MPEGH/ISO/HEVC
  21. Duration                                 : 2 h 0 min
  22. Bit rate                                 : 4 977 kb/s
  23. Width                                    : 1 920 pixels
  24. Height                                   : 1 038 pixels
  25. Display aspect ratio                     : 1.85:1
  26. Frame rate mode                          : Constant
  27. Frame rate                               : 23.976 (24000/1001/53354) FPS
  28. Color space                              : YUV
  29. Chroma subsampling                       : 4:2:0
  30. Bit depth                                : 10 bits
  31. Bits/(Pixel*Frame)                       : 0.104
  32. Stream size                              : 4.17 GiB (76%)
  33. Language                                 : Japanese
  34. Default                                  : Yes
  35. Forced                                   : No
  36. Audio
  37. ID                                       : 2
  38. Format                                   : DTS
  39. Format/Info                              : Digital Theater Systems
  40. Codec ID                                 : A_DTS
  41. Duration                                 : 2 h 0 min
  42. Bit rate mode                            : Constant
  43. Bit rate                                 : 1 509 kb/s
  44. Channel(s)                               : 6 channels
  45. Channel layout                           : C L R Ls Rs LFE
  46. Sampling rate                            : 48.0 kHz
  47. Frame rate                               : 93.750 FPS (512 SPF)
  48. Bit depth                                : 16 bits
  49. Compression mode                         : Lossy
  50. Stream size                              : 1.27 GiB (23%)
  51. Language                                 : Japanese
  52. Default                                  : Yes
  53. Forced                                   : No
  54. Text #1
  55. ID                                       : 3
  56. Format                                   : ASS
  57. Codec ID                                 : S_TEXT/ASS
  58. Codec ID/Info                            : Advanced Sub Station Alpha
  59. Duration                                 : 1 h 59 min
  60. Bit rate                                 : 118 b/s
  61. Count of elements                        : 2080
  62. Compression mode                         : Lossless
  63. Stream size                              : 104 KiB (0%)
  64. Title                                    : 简体
  65. Language                                 : Chinese
  66. Default                                  : Yes
  67. Forced                                   : No
  68. Text #2
  69. ID                                       : 4
  70. Format                                   : ASS
  71. Codec ID                                 : S_TEXT/ASS
  72. Codec ID/Info                            : Advanced Sub Station Alpha
  73. Duration                                 : 1 h 59 min
  74. Bit rate                                 : 118 b/s
  75. Count of elements                        : 2080
  76. Compression mode                         : Lossless
  77. Stream size                              : 104 KiB (0%)
  78. Title                                    : 繁體
  79. Language                                 : Chinese
  80. Default                                  : No
  81. Forced                                   : No
  82. Menu
  83. 00:00:00.000                             : en:Chapter 01
  84. 00:09:03.835                             : en:Chapter 02
  85. 00:19:01.098                             : en:Chapter 03
  86. 00:32:14.891                             : en:Chapter 04
  87. 00:41:31.447                             : en:Chapter 05
  88. 00:54:18.922                             : en:Chapter 06
  89. 01:04:39.959                             : en:Chapter 07
  90. 01:14:00.144                             : en:Chapter 08
  91. 01:24:54.840                             : en:Chapter 09
  92. 01:31:36.825                             : en:Chapter 10
  93. 01:47:42.998                             : en:Chapter 11
  94. 01:54:49.466                             : en:Chapter 12





此处一般会放置磁力链或种子下载链接,不过此链接需要注册会员才能看到,点击“立即注册”
磁力链下载【下载链接仅对注册会员开放,登陆后可见】
BT9527电影天堂 1、BT9527电影天堂提供的BT文件均来源于互联网抓取,只供网友学习交流、技术提升使用。
2、我们遵守BitTorrent点对点协议原则,任何版权问题请联系原资源发布商,我们不处理任何版权纠纷,谢谢!如有争议请联系邮箱:BT9527#hotmail.com(#换成@)
3、如果您发现某页面或地址有错误,请联系站长邮箱BT9527#hotmail.com(#换成@),我们会尽快处理。您的热心是对BT9527电影天堂最大的支持。
4、本站建议去正规影院观看电影以支持电影行业发展。
最新回复 (0)

你可以在 登录 or 注册 后,对此帖发表评论!

返回
发新帖