拳王开饭馆[中文字幕].The.Slammin.Salmon.2009.1080p.BluRay.DTS.x265-10bit-ENTHD 7.76GB

版主小s 3月前 122

✔资源类型:暂未分类   ✔电影年份:2009   ✔电影地区:欧美   ✔电影分类:喜剧

◎译  名 拳王开饭馆
◎片  名 The Slammin' Salmon
◎年  代 2009
◎产  地 美国
◎类  别 喜剧
◎语  言 英语
◎上映日期 2009-01-17(美国)
◎IMDb链接 https://www.imdb.com/title/tt1135525/
◎豆瓣评分 6.4/10 (2924人评价)
◎豆瓣链接 https://movie.douban.com/subject/2969478/
◎片  长 90分钟
◎导  演 凯文·赫夫南 Kevin Heffernan (id:1018057)
◎编  剧 凯文·赫夫南 Kevin Heffernan (id:1018057)
       艾瑞克·斯图汉斯克 Erik Stolhanske (id:1049867)
       杰伊·钱德拉萨卡 Jay Chandrasekhar (id:1000157)
       史蒂夫·雷米 Steve Lemme (id:1040766)
       保罗·索特 Paul Soter (id:1022808)
◎演  员 凯文·赫夫南 Kevin Heffernan (id:1018057)
       杰夫·蔡斯 Jeff Chase (id:1076111)
       卡拉·盖洛 Carla Gallo (id:1009275)
       保罗·索特 Paul Soter (id:1022808)
       迈克尔·奇克 Michael Yurchak (id:1168760)
       奈特·法松 Nat Faxon (id:1318102)
       艾瑞克·斯图汉斯克 Erik Stolhanske (id:1049867)
       杰伊·钱德拉萨卡 Jay Chandrasekhar (id:1000157)
       艾普尔·鲍白 April Bowlby (id:1021964)
       寇碧·史莫德斯 Cobie Smulders (id:1000018)
       史蒂夫·雷米 Steve Lemme (id:1040766)
       威尔·福特 Will Forte (id:1019039)
       迈克·克拉克·邓肯 Michael Clarke Duncan (id:1036346)
       Aaron Behl Aaron Behl (id:1190704)
       菲利浦·布化尼克迈耶 Philippe Brenninkmeyer (id:1074202)
       迈克尔·韦弗 Michael Weaver (id:1167934)
       波比·苏·卢瑟 Bobbi Sue Luther (id:1181280)
       马克·埃文·杰克逊 Marc Evan Jackson (id:1207621)
       坎迪斯·史密斯 Candace Smith (id:1207213)
        Diane Baldwin (id:1230942)
       摩根·费尔切尔德 Morgan Fairchild (id:1007042)
       吉莲·韦格曼 Gillian Vigman (id:1004783)
       奥立薇娅·玛恩 Olivia Munn (id:1009303)
       吉姆·加菲根 Jim Gaffigan (id:1009467)
       薇薇卡·福克斯 Vivica A. Fox (id:1025223)
       迈克尔·梅尔顿 Michael Merton (id:1042080)
       森德希·拉玛莫西 Sendhil Ramamurthy (id:1044979)
       兰斯·亨利克森 Lance Henriksen (id:1048140)
       内森·巴尔 Nathan Barr (id:1337551)
       乔尔·J·理查德 Joel J. Richard (id:1002042)
       Wendy O'Brien Wendy O'Brien (id:1293372)
       Erik Porn Erik Porn (id:1199941)
        Thea Samuels (id:1220551)
       Jai James Jai James (id:1305183)
       Kelly Granite Kelly Granite (id:1054754)

◎简  介
  克里昂(迈克·克拉克·邓肯 Michael Clarke Duncan 饰)曾经是一名脾气火爆的重量级拳击冠军,退役后开了一家拳王餐馆,他的凶悍作风让员工们都闻风丧胆,不敢造次。然而在一次日本白化动物猎捕活动上,克里昂与一位日本人打赌谁捕得多,结果却输得一塌糊涂,并要在第二天交出两万块,否则餐馆将被接管。要在一夜之间赚够两万块简直不太可能,要知道餐馆销售最高周记录也不超过一万五美金,为了免遭克里昂的铁拳惩罚,可怜的服务员们开始绞尽脑汁,使尽浑身解数,誓死掏空客人钱包……
  1. ##### MediaInfo ######
  2. General
  3. Unique ID                                : 151000582634689760163775395512523917121 (0x7199A784E5CABFD620F5D14F25178741)
  4. Complete name                            : The.Slammin.Salmon.2009.1080p.BluRay.DTS.x265-10bit-ENTHD.mkv
  5. Format                                   : Matroska
  6. Format version                           : Version 4
  7. File size                                : 7.75 GiB
  8. Duration                                 : 1 h 38 min
  9. Overall bit rate                         : 11.3 Mb/s
  10. Movie name                               : The Slammin Salmon 2009 1080p BluRay DTS x265-10bit-HDS
  11. Encoded date                             : UTC 2022-06-10 02:34:55
  12. Writing application                      : mkvmerge v67.0.0 ('Under Stars') 64-bit
  13. Writing library                          : libebml v1.4.2 + libmatroska v1.6.4
  14. Video
  15. ID                                       : 1
  16. Format                                   : HEVC
  17. Format/Info                              : High Efficiency Video Coding
  18. Format profile                           : Main 10@L5.1@High
  19. Codec ID                                 : V_MPEGH/ISO/HEVC
  20. Duration                                 : 1 h 38 min
  21. Bit rate                                 : 9 764 kb/s
  22. Width                                    : 1 920 pixels
  23. Height                                   : 1 080 pixels
  24. Display aspect ratio                     : 16:9
  25. Frame rate mode                          : Constant
  26. Frame rate                               : 23.976 (24000/1001/53354) FPS
  27. Color space                              : YUV
  28. Chroma subsampling                       : 4:2:0
  29. Bit depth                                : 10 bits
  30. Bits/(Pixel*Frame)                       : 0.196
  31. Stream size                              : 6.69 GiB (86%)
  32. Title                                    : meyu@HDSky
  33. Writing library                          : x265 - H.265/HEVC codec
  34. Default                                  : Yes
  35. Forced                                   : No
  36. Audio
  37. ID                                       : 2
  38. Format                                   : DTS
  39. Format/Info                              : Digital Theater Systems
  40. Codec ID                                 : A_DTS
  41. Duration                                 : 1 h 38 min
  42. Bit rate mode                            : Constant
  43. Bit rate                                 : 1 509 kb/s
  44. Channel(s)                               : 6 channels
  45. Channel layout                           : C L R Ls Rs LFE
  46. Sampling rate                            : 48.0 kHz
  47. Frame rate                               : 93.750 FPS (512 SPF)
  48. Bit depth                                : 24 bits
  49. Compression mode                         : Lossy
  50. Stream size                              : 1.04 GiB (13%)
  51. Title                                    : English
  52. Language                                 : English
  53. Default                                  : Yes
  54. Forced                                   : No
  55. Text
  56. ID                                       : 3
  57. Format                                   : PGS
  58. Muxing mode                              : zlib
  59. Codec ID                                 : S_HDMV/PGS
  60. Codec ID/Info                            : Picture based subtitle format used on BDs/HD-DVDs
  61. Duration                                 : 1 h 37 min
  62. Bit rate                                 : 76.2 kb/s
  63. Count of elements                        : 2222
  64. Stream size                              : 53.4 MiB (1%)
  65. Title                                    : CHS&ENG
  66. Language                                 : Chinese
  67. Default                                  : Yes
  68. Forced                                   : No
  69. Menu
  70. 00:00:00.000                             : en:第 01 章
  71. 00:05:51.351                             : en:第 02 章
  72. 00:14:35.708                             : en:第 03 章
  73. 00:20:54.170                             : en:第 04 章
  74. 00:26:12.613                             : en:第 05 章
  75. 00:34:27.565                             : en:第 06 章
  76. 00:42:42.727                             : en:第 07 章
  77. 00:49:57.870                             : en:第 08 章
  78. 00:59:33.236                             : en:第 09 章
  79. 01:06:39.370                             : en:第 10 章
  80. 01:12:52.410                             : en:第 11 章
  81. 01:24:35.779                             : en:第 12 章





此处一般会放置磁力链或种子下载链接,不过此链接需要注册会员才能看到,点击“立即注册”
磁力链下载【下载链接仅对注册会员开放,登陆后可见】
BT9527电影天堂 1、BT9527电影天堂提供的BT文件均来源于互联网抓取,只供网友学习交流、技术提升使用。
2、我们遵守BitTorrent点对点协议原则,任何版权问题请联系原资源发布商,我们不处理任何版权纠纷,谢谢!如有争议请联系邮箱:BT9527#hotmail.com(#换成@)
3、如果您发现某页面或地址有错误,请联系站长邮箱BT9527#hotmail.com(#换成@),我们会尽快处理。您的热心是对BT9527电影天堂最大的支持。
4、本站建议去正规影院观看电影以支持电影行业发展。
最新回复 (0)

你可以在 登录 or 注册 后,对此帖发表评论!

返回
发新帖