赌侠2:上海滩赌圣[国语音轨/中英字幕].God.of.Gamblers.III.Back.to.Shanghai.1991.BluRay.1080p.x265.10bit.2Audio-MiniHD 5.38GB

版主小s 3月前 196

✔资源类型:暂未分类   ✔电影年份:更 早   ✔电影地区:香港   ✔电影分类:喜剧

◎译  名 赌侠2:上海滩赌圣 / 赌侠2之上海滩赌圣 / God of Gamblers Part III: Back to Shanghai
◎片  名 賯bII上海灘俾}
◎年  代 1991
◎产  地 中国香港
◎类  别 喜剧 / 奇幻
◎语  言 粤语 / 英语 / 汉语普通话 / 法语
◎上映日期 1991-08-21(中国香港)
◎IMDb链接 https://www.imdb.com/title/tt0101783/
◎豆瓣评分 7.7/10 (120855人评价)
◎豆瓣链接 https://movie.douban.com/subject/1302977/
◎片  长 116分钟
◎导  演 王晶 Jing Wong (id:1274331)
◎编  剧 王晶 Jing Wong (id:1274331)
       刘镇伟 Jeffrey Lau (id:1274431)
       元奎 Corey Yuen (id:1289150)
       吴思远 See-Yuen Ng (id:1293125)
◎演  员 周星驰 Stephen Chow (id:1048026)
       巩俐 Li Gong (id:1035641)
       吕良伟 Ray Lui (id:1037706)
       向华强 Charles Heung (id:1037691)
       吴君如 Sandra Ng (id:1127819)
       吴孟达 Man Tat Ng (id:1016771)
       黄韵诗 Wan-Si Wong (id:1274439)
       龙方 Fong Lung (id:1290470)
       张敏 Sharla Cheung (id:1005297)
       方季韦 Sophia Fang (id:1326770)
       王晶 Jing Wong (id:1274331)
       刘洵 Shun Lau (id:1274304)
       周比利 Billy Chow (id:1050501)
       黄炳耀 Barry Wong (id:1014964)
       田丰 Feng Tien (id:1019621)
       林迪安 Dion Lam (id:1289289)
       陈龙 Peter Chan Lung (id:1321791)
       胡立成 Licheng Hu (id:1331134)
       雷达 Tat Lui (id:1361262)
       邓泰和 Tai Wo Tang (id:1394346)
       陈文妤 Man-Hiu Chan (id:1418360)
       张德荣 Tak Wing Cheung (id:1417552)
       冼宝明 Bo-Ming Shin (id:1470531)
       王晶 Jing Wong (id:1274331)
       向华强 Charles Heung (id:1037691)
       向华胜 Jimmy Heung (id:1327878)
       江玉仪 Ivy Kong (id:1275631)
       卢冠廷 Lowell Lo (id:1290255)
       许愿 Clarence Hui (id:1287122)
       徐嘉良 Jialiang Xu (id:1341077)
       冼宝明 Bo-Ming Shin (id:1470531)
       袁和平 Woo-ping Yuen (id:1275026)
       袁祥仁 Cheung-Yan Yuen (id:1301574)
       林迪安 Dion Lam (id:1289289)
       谷轩昭 Huan-Chiu Ku (id:1289063)

◎简  介
  阿星(周星驰 饰)由赌神处学成归来,恰逢不甘心失败的大军集合中南海五大高手复仇,虽有龙五(向华强 饰)相助,但阿星与三叔(吴孟达 饰)仍被大军等人发功送至1937年的上海……                                    
                                阿星与三叔失散后意外击杀谋害许文强之凶手,得以结识丁力(吕良伟 饰),自此与祖父周大福(吴孟达 饰)留在丁力身边,丁力女友如仙(巩俐 饰)令阿星魂牵梦绕,却不知她是自己所中意女孩如梦(巩俐 饰)的孪生姐姐。川岛芳子意欲控制上海,于是网罗大军等人频频向丁力发难,并约定最后以赌局决定胜负,阿星由日本人手中涉险逃脱,终于赶上赌局,而决定这场赌局的关键,却是一个名叫“今晚打老虎”的神秘人物……
  1. ##### MediaInfo ######
  2. General
  3. Unique ID                                : 181988276658763013467919097480909552824 (0x88E9AACAA261754884F61D50E41DFCB8)
  4. Complete name                            : God.of.Gamblers.III.Back.to.Shanghai.1991.BluRay.1080p.x265.10bit.2Audio-MiniHD.mkv
  5. Format                                   : Matroska
  6. Format version                           : Version 4
  7. File size                                : 5.38 GiB
  8. Duration                                 : 1 h 56 min
  9. Overall bit rate                         : 6 611 kb/s
  10. Encoded date                             : UTC 2017-05-26 09:22:46
  11. Writing application                      : mkvmerge v11.0.0 ('Alive') 64bit
  12. Writing library                          : libebml v1.3.4 + libmatroska v1.4.5
  13. Video
  14. ID                                       : 1
  15. Format                                   : HEVC
  16. Format/Info                              : High Efficiency Video Coding
  17. Codec ID                                 : V_MPEGH/ISO/HEVC
  18. Duration                                 : 1 h 56 min
  19. Bit rate                                 : 5 519 kb/s
  20. Width                                    : 1 920 pixels
  21. Height                                   : 1 080 pixels
  22. Display aspect ratio                     : 16:9
  23. Frame rate mode                          : Constant
  24. Frame rate                               : 24.000 FPS
  25. Bits/(Pixel*Frame)                       : 0.111
  26. Stream size                              : 4.49 GiB (83%)
  27. Default                                  : Yes
  28. Forced                                   : No
  29. Audio #1
  30. ID                                       : 2
  31. Format                                   : AC-3
  32. Format/Info                              : Audio Coding 3
  33. Commercial name                          : Dolby Digital
  34. Codec ID                                 : A_AC3
  35. Duration                                 : 1 h 56 min
  36. Bit rate mode                            : Constant
  37. Bit rate                                 : 320 kb/s
  38. Channel(s)                               : 2 channels
  39. Channel layout                           : L R
  40. Sampling rate                            : 48.0 kHz
  41. Frame rate                               : 31.250 FPS (1536 SPF)
  42. Compression mode                         : Lossy
  43. Stream size                              : 267 MiB (5%)
  44. Language                                 : Chinese
  45. Service kind                             : Complete Main
  46. Default                                  : Yes
  47. Forced                                   : No
  48. Audio #2
  49. ID                                       : 3
  50. Format                                   : AC-3
  51. Format/Info                              : Audio Coding 3
  52. Commercial name                          : Dolby Digital
  53. Codec ID                                 : A_AC3
  54. Duration                                 : 1 h 56 min
  55. Bit rate mode                            : Constant
  56. Bit rate                                 : 640 kb/s
  57. Channel(s)                               : 6 channels
  58. Channel layout                           : L R C LFE Ls Rs
  59. Sampling rate                            : 48.0 kHz
  60. Frame rate                               : 31.250 FPS (1536 SPF)
  61. Compression mode                         : Lossy
  62. Stream size                              : 534 MiB (10%)
  63. Language                                 : Chinese
  64. Service kind                             : Complete Main
  65. Default                                  : No
  66. Forced                                   : No
  67. Text #1
  68. ID                                       : 4
  69. Format                                   : PGS
  70. Muxing mode                              : zlib
  71. Codec ID                                 : S_HDMV/PGS
  72. Codec ID/Info                            : Picture based subtitle format used on BDs/HD-DVDs
  73. Language                                 : Chinese
  74. Default                                  : Yes
  75. Forced                                   : No
  76. Text #2
  77. ID                                       : 5
  78. Format                                   : PGS
  79. Muxing mode                              : zlib
  80. Codec ID                                 : S_HDMV/PGS
  81. Codec ID/Info                            : Picture based subtitle format used on BDs/HD-DVDs
  82. Language                                 : Chinese
  83. Default                                  : No
  84. Forced                                   : No
  85. Text #3
  86. ID                                       : 6
  87. Format                                   : PGS
  88. Muxing mode                              : zlib
  89. Codec ID                                 : S_HDMV/PGS
  90. Codec ID/Info                            : Picture based subtitle format used on BDs/HD-DVDs
  91. Language                                 : English
  92. Default                                  : No
  93. Forced                                   : No
  94. Menu
  95. 00:00:00.000                             : en:Chapter 01
  96. 00:07:41.208                             : en:Chapter 02
  97. 00:18:55.125                             : en:Chapter 03
  98. 00:28:21.166                             : en:Chapter 04
  99. 00:40:21.333                             : en:Chapter 05
  100. 00:47:27.125                             : en:Chapter 06
  101. 00:58:30.291                             : en:Chapter 07
  102. 01:08:22.083                             : en:Chapter 08
  103. 01:19:18.208                             : en:Chapter 09
  104. 01:27:33.916                             : en:Chapter 10
  105. 01:35:39.000                             : en:Chapter 11
  106. 01:45:54.791                             : en:Chapter 12





此处一般会放置磁力链或种子下载链接,不过此链接需要注册会员才能看到,点击“立即注册”
磁力链下载【下载链接仅对注册会员开放,登陆后可见】
BT9527电影天堂 1、BT9527电影天堂提供的BT文件均来源于互联网抓取,只供网友学习交流、技术提升使用。
2、我们遵守BitTorrent点对点协议原则,任何版权问题请联系原资源发布商,我们不处理任何版权纠纷,谢谢!如有争议请联系邮箱:BT9527#hotmail.com(#换成@)
3、如果您发现某页面或地址有错误,请联系站长邮箱BT9527#hotmail.com(#换成@),我们会尽快处理。您的热心是对BT9527电影天堂最大的支持。
4、本站建议去正规影院观看电影以支持电影行业发展。
最新回复 (0)

你可以在 登录 or 注册 后,对此帖发表评论!

返回
发新帖