心慌方[中文字幕].CUBE.2021.BluRay.1080p.DTS-HDMA5.1.x265.10bit-CTRLHD 5.68GB

版主小s 3月前 348

✔资源类型:暂未分类   ✔电影年份:2021   ✔电影地区:日本   ✔电影分类:悬疑

◎译  名 心慌方 / 心慌方 日本版 / 死亡立方(港) / 超栗方杀阵(台) / CUBE异次元杀阵:最后一次进去 / CUBE
◎片  名 CUBE 一度入ったら、最後
◎年  代 2021
◎产  地 日本
◎类  别 悬疑 / 惊悚
◎语  言 日语
◎上映日期 2021-10-22(日本)
◎IMDb链接 https://www.imdb.com/title/tt13975458/
◎豆瓣评分 4.2/10 (4300人评价)
◎豆瓣链接 https://movie.douban.com/subject/35348991/
◎片  长 108分钟
◎导  演 清水康彦 Yasuhiko Shimizu (id:1450830)
◎编  剧 徳尾浩司 Koji Tokuo (id:1372247)
◎演  员 菅田将晖 Masaki Suda (id:1274418)
       杏 Anne (id:1260550)
       冈田将生 Masaki Okada (id:1274453)
       斋藤工 Takumi Sait? (id:1025531)
       吉田钢太郎 K?tar? Yoshida (id:1004817)
       田代辉 Tashiro Hikaru (id:1467817)
       柄本时生 Tokio Emoto (id:1313539)

◎简  介
  #心慌方翻拍日本版#《综艺》报道:著名科幻悬疑惊悚片《心慌方/异次元杀阵》翻拍日本版。菅田将晖、冈田将生、斋藤工、杏、吉田健太郎 、田代辉出演六个主人公,他们发现被困在一座神秘复杂的迷宫中,面临……清水康彦(《万力》)执导,松竹发行,去年10月、11月已拍完,定档今年10月22日日本上映。
  1. ##### MediaInfo ######
  2. General
  3. Unique ID                                : 322587960062929318784593776072202848696 (0xF2B02E6304AD807DD5DD9FBFB1C709B8)
  4. Complete name                            : CUBE.2021.BluRay.1080p.DTS-HDMA5.1.x265.10bit-CTRLHD.mkv
  5. Format                                   : Matroska
  6. Format version                           : Version 4
  7. File size                                : 5.68 GiB
  8. Duration                                 : 1 h 48 min
  9. Overall bit rate mode                    : Variable
  10. Overall bit rate                         : 7 492 kb/s
  11. Encoded date                             : UTC 2022-06-11 21:18:35
  12. Writing application                      : mkvmerge v62.0.0 ('Apollo') 64-bit
  13. Writing library                          : libebml v1.4.2 + libmatroska v1.6.4
  14. Video
  15. ID                                       : 1
  16. Format                                   : HEVC
  17. Format/Info                              : High Efficiency Video Coding
  18. Format profile                           : Main 10@L5@Main
  19. Codec ID                                 : V_MPEGH/ISO/HEVC
  20. Duration                                 : 1 h 48 min
  21. Bit rate                                 : 3 968 kb/s
  22. Width                                    : 1 920 pixels
  23. Height                                   : 1 080 pixels
  24. Display aspect ratio                     : 16:9
  25. Frame rate mode                          : Constant
  26. Frame rate                               : 24.000 FPS
  27. Color space                              : YUV
  28. Chroma subsampling                       : 4:2:0
  29. Bit depth                                : 10 bits
  30. Bits/(Pixel*Frame)                       : 0.080
  31. Stream size                              : 3.01 GiB (53%)
  32. Writing library                          : x265 3.5+10-82786fccc:[Windows][MSVC 1929][64 bit] 10bit
  33. Encoding settings                        : cpuid=533541111039 / frame-threads=5 / numa-pools=36,36 / wpp / no-pmode / no-pme / no-psnr / no-ssim / log-level=2 / input-csp=1 / input-res=1920x1080 / interlace=0 / total-frames=0 / level-idc=0 / high-tier=1 / uhd-bd=0 / ref=6 / no-allow-non-conformance / repeat-headers / annexb / no-aud / no-eob / no-eos / no-hrd / info / hash=0 / no-temporal-layers / no-open-gop / min-keyint=24 / keyint=250 / gop-lookahead=0 / bframes=8 / b-adapt=2 / b-pyramid / bframe-bias=0 / rc-lookahead=24 / lookahead-slices=6 / NTMzNTQ=uuDQuD2mJt9fsCf / scenecut=40 / hist-scenecut=0 / radl=0 / no-splice / no-intra-refresh / ctu=64 / min-cu-size=8 / no-rect / no-amp / max-tu-size=32 / tu-inter-depth=1 / tu-intra-depth=1 / limit-tu=0 / rdoq-level=0 / dynamic-rd=0.00 / no-ssim-rd / signhide / no-tskip / nr-intra=0 / nr-inter=0 / no-constrained-intra / no-strong-intra-smoothing / max-merge=3 / limit-refs=1 / no-limit-modes / me=2 / subme=7 / merange=48 / temporal-mvp / no-frame-dup / no-hme / weightp / weightb / no-analyze-src-pics / deblock=0:0 / sao / no-sao-non-deblock / rd=4 / selective-sao=4 / early-skip / rskip / no-fast-intra / no-tskip-fast / no-cu-lossless / b-intra / no-splitrd-skip / rdpenalty=0 / psy-rd=2.00 / psy-rdoq=0.00 / no-rd-refine / no-lossless / cbqpoffs=0 / crqpoffs=0 / rc=crf / crf=16.0 / qcomp=0.60 / qpstep=4 / stats-write=0 / stats-read=0 / ipratio=1.40 / pbratio=1.30 / aq-mode=3 / aq-strength=1.00 / cutree / zone-count=0 / no-strict-cbr / qg-size=32 / no-rc-grain / qpmax=69 / qpmin=0 / no-const-vbv / sar=0 / overscan=0 / videoformat=5 / range=0 / colorprim=2 / transfer=2 / colormatrix=2 / chromaloc=0 / display-window=0 / cll=0,0 / min-luma=0 / max-luma=1023 / log2-max-poc-lsb=8 / vui-timing-info / vui-hrd-info / slices=1 / no-opt-qp-pps / no-opt-ref-list-length-pps / no-multi-pass-opt-rps / scenecut-bias=0.05 / hist-threshold=0.03 / no-opt-cu-delta-qp / aq-motion / no-hdr10 / no-hdr10-opt / no-dhdr10-opt / no-idr-recovery-sei / analysis-reuse-level=0 / analysis-save-reuse-level=0 / analysis-load-reuse-level=0 / scale-factor=0 / refine-intra=0 / refine-inter=0 / refine-mv=1 / refine-ctu-distortion=0 / no-limit-sao / ctu-info=0 / no-lowpass-dct / refine-analysis-type=0 / copy-pic=1 / max-ausize-factor=1.0 / no-dynamic-refine / no-single-sei / no-hevc-aq / no-svt / no-field / qp-adaptation-range=1.00 / scenecut-aware-qp=0conformance-window-offsets / right=0 / bottom=0 / NTMzNTQ= / decoder-max-rate=0 / no-vbv-live-multi-pass
  34. Default                                  : Yes
  35. Forced                                   : No
  36. Audio
  37. ID                                       : 2
  38. Format                                   : DTS ES XLL
  39. Format/Info                              : Digital Theater Systems
  40. Commercial name                          : DTS-HD Master Audio
  41. Codec ID                                 : A_DTS
  42. Duration                                 : 1 h 48 min
  43. Bit rate mode                            : Variable
  44. Bit rate                                 : 3 512 kb/s
  45. Channel(s)                               : 6 channels
  46. Channel(s)_Original                      : 7 channels
  47. ChannelLayout_Original                   : C L R Ls Rs LFE Cs
  48. Sampling rate                            : 48.0 kHz
  49. Frame rate                               : 93.750 FPS (512 SPF)
  50. Bit depth                                : 24 bits
  51. Compression mode                         : Lossless
  52. Stream size                              : 2.66 GiB (47%)
  53. Language                                 : Japanese
  54. Default                                  : Yes
  55. Forced                                   : No
  56. Text #1
  57. ID                                       : 3
  58. Format                                   : PGS
  59. Muxing mode                              : zlib
  60. Codec ID                                 : S_HDMV/PGS
  61. Codec ID/Info                            : Picture based subtitle format used on BDs/HD-DVDs
  62. Duration                                 : 1 h 40 min
  63. Bit rate                                 : 12.5 kb/s
  64. Count of elements                        : 1279
  65. Stream size                              : 8.98 MiB (0%)
  66. Language                                 : Chinese
  67. Default                                  : Yes
  68. Forced                                   : No
  69. Text #2
  70. ID                                       : 4
  71. Format                                   : PGS
  72. Muxing mode                              : zlib
  73. Codec ID                                 : S_HDMV/PGS
  74. Codec ID/Info                            : Picture based subtitle format used on BDs/HD-DVDs
  75. Duration                                 : 1 h 44 min
  76. Bit rate                                 : 14.2 kb/s
  77. Count of elements                        : 1305
  78. Stream size                              : 10.5 MiB (0%)
  79. Language                                 : English
  80. Default                                  : Yes
  81. Forced                                   : No
  82. Menu
  83. 00:00:00.000                             : en:第 01 章
  84. 00:06:46.439                             : en:第 02 章
  85. 00:13:08.521                             : en:第 03 章
  86. 00:17:25.144                             : en:第 04 章
  87. 00:20:59.125                             : en:第 05 章
  88. 00:25:37.102                             : en:第 06 章
  89. 00:31:31.189                             : en:第 07 章
  90. 00:36:56.648                             : en:第 08 章
  91. 00:41:26.584                             : en:第 09 章
  92. 00:44:41.913                             : en:第 10 章
  93. 00:49:02.206                             : en:第 11 章
  94. 00:52:45.763                             : en:第 12 章
  95. 00:57:01.251                             : en:第 13 章
  96. 01:01:27.417                             : en:第 14 章
  97. 01:05:22.118                             : en:第 15 章
  98. 01:10:07.203                             : en:第 16 章
  99. 01:18:53.862                             : en:第 17 章
  100. 01:22:56.038                             : en:第 18 章
  101. 01:28:05.380                             : en:第 19 章
  102. 01:32:56.538                             : en:第 20 章
  103. 01:45:01.262                             : en:第 21 章
  104. 01:53:57.164                             : en:第 22 章





此处一般会放置磁力链或种子下载链接,不过此链接需要注册会员才能看到,点击“立即注册”
磁力链下载【下载链接仅对注册会员开放,登陆后可见】
BT9527电影天堂 1、BT9527电影天堂提供的BT文件均来源于互联网抓取,只供网友学习交流、技术提升使用。
2、我们遵守BitTorrent点对点协议原则,任何版权问题请联系原资源发布商,我们不处理任何版权纠纷,谢谢!如有争议请联系邮箱:BT9527#hotmail.com(#换成@)
3、如果您发现某页面或地址有错误,请联系站长邮箱BT9527#hotmail.com(#换成@),我们会尽快处理。您的热心是对BT9527电影天堂最大的支持。
4、本站建议去正规影院观看电影以支持电影行业发展。
最新回复 (0)

你可以在 登录 or 注册 后,对此帖发表评论!

返回
发新帖