赌侠[国语音轨/中英字幕].God.of.Gamblers.II.1991.BluRay.1080p.x265.10bit.2Audio-MiniHD 5.09GB

版主小s 17天前 57

✔资源类型:暂未分类   ✔电影年份:更 早   ✔电影地区:香港   ✔电影分类:剧情

◎译  名 赌侠 / God of Gamblers II
◎片  名 賯b
◎年  代 1990
◎产  地 中国香港
◎类  别 剧情 / 喜剧
◎语  言 粤语
◎上映日期 1990-12-13(中国香港)
◎IMDb链接 https://www.imdb.com/title/tt0101763/
◎豆瓣评分 7.8/10 (185556人评价)
◎豆瓣链接 https://movie.douban.com/subject/1300566/
◎片  长 104分钟
◎导  演 王晶 Jing Wong (id:1274331)
◎编  剧 王晶 Jing Wong (id:1274331)
       元奎 Corey Yuen (id:1289150)
       吴思远 See-Yuen Ng (id:1293125)
◎演  员 刘德华 Andy Lau (id:1054424)
       周星驰 Stephen Chow (id:1048026)
       向华强 Charles Heung (id:1037691)
       张敏 Sharla Cheung (id:1005297)
       吴孟达 Man Tat Ng (id:1016771)
       陈法蓉 Monica Chan (id:1042518)
       柯受良 Sau Leung 'Blacky' Ko (id:1315099)
       单立文 Pal Sinn (id:1274325)
       成奎安 Fui-On Shing (id:1141665)
       苏伟南 Wai-Nam So (id:1433165)
       山口京子 Kyoko Yamaguchi (id:1415454)
       王晶 Jing Wong (id:1274331)
       周润发 Yun-Fat Chow (id:1044899)
       周树基 Kent Chow Shu-Kei (id:1411711)
       岑潜波 Chien-Po Tsen (id:1373123)
       吴康宁 Hong-Ning Ng (id:1447771)
       胡立成 Licheng Hu (id:1331134)
       李兆基 Siu-Kei Lee (id:1275475)
       鲍汉琳 Hon Lam Bau (id:1125264)
       元彬 Bun Yuen (id:1278657)
       黄志强 Kirk Wong (id:1301193)
       黄斌 Ronald Wong (id:1301199)
       黄一飞 Yut Fei Wong (id:1301215)
       程东 John Ching Tung (id:1316720)
       鹿村泰祥 Yasuyoshi Shikamura (id:1330491)
       梁聪 Leung Chung (id:1471582)
       王晶 Jing Wong (id:1274331)
       向华强 Charles Heung (id:1037691)
       向华胜 Jimmy Heung (id:1327878)
       卢冠廷 Lowell Lo (id:1290255)
       周伟权 Wai-kuen Chow (id:1439948)
       冼宝明 Bo-Ming Shin (id:1470531)

◎简  介
  得赌神毕生绝技的刀仔(刘德华 饰)在龙五(向华强 饰)的陪同下重出江湖,代表师父以赌技致力慈善事业,人称赌侠。遇到欲拜赌神为师号称赌圣的阿星(周星驰 饰)后,两人互展计谋绝技,打成平手。 侯赛因(单立文 饰)为替被赌神击败的义父陈金城报仇,在赌船上打着赌神旗号骗尽东南亚阔佬钱财,欲使赌神身败名裂,并设计挟持了龙五和阿叔(吴孟达 饰)等人,以期封住刀仔的口,不把他的真实身份揭穿。为了赌神的声誉,刀仔和阿星一用赌技绝学一用特异功能,并肩合作与侯赛因在赌桌上展开了智斗。
  1. ##### MediaInfo ######
  2. General
  3. Unique ID                                : 229223745607833541363879394229487566448 (0xAC72E337556322C3ADB05FA7860E7E70)
  4. Complete name                            : God.of.Gamblers.II.1991.BluRay.1080p.x265.10bit.2Audio-MiniHD.mkv
  5. Format                                   : Matroska
  6. Format version                           : Version 4
  7. File size                                : 5.09 GiB
  8. Duration                                 : 1 h 44 min
  9. Overall bit rate                         : 6 958 kb/s
  10. Encoded date                             : UTC 2017-05-26 08:55:23
  11. Writing application                      : mkvmerge v11.0.0 ('Alive') 64bit
  12. Writing library                          : libebml v1.3.4 + libmatroska v1.4.5
  13. Video
  14. ID                                       : 1
  15. Format                                   : HEVC
  16. Format/Info                              : High Efficiency Video Coding
  17. Codec ID                                 : V_MPEGH/ISO/HEVC
  18. Duration                                 : 1 h 44 min
  19. Bit rate                                 : 5 859 kb/s
  20. Width                                    : 1 920 pixels
  21. Height                                   : 1 080 pixels
  22. Display aspect ratio                     : 16:9
  23. Frame rate mode                          : Constant
  24. Frame rate                               : 24.000 FPS
  25. Bits/(Pixel*Frame)                       : 0.118
  26. Stream size                              : 4.29 GiB (84%)
  27. Default                                  : Yes
  28. Forced                                   : No
  29. Audio #1
  30. ID                                       : 2
  31. Format                                   : AC-3
  32. Format/Info                              : Audio Coding 3
  33. Commercial name                          : Dolby Digital
  34. Codec ID                                 : A_AC3
  35. Duration                                 : 1 h 44 min
  36. Bit rate mode                            : Constant
  37. Bit rate                                 : 320 kb/s
  38. Channel(s)                               : 2 channels
  39. Channel layout                           : L R
  40. Sampling rate                            : 48.0 kHz
  41. Frame rate                               : 31.250 FPS (1536 SPF)
  42. Compression mode                         : Lossy
  43. Stream size                              : 240 MiB (5%)
  44. Language                                 : Chinese
  45. Service kind                             : Complete Main
  46. Default                                  : Yes
  47. Forced                                   : No
  48. Audio #2
  49. ID                                       : 3
  50. Format                                   : AC-3
  51. Format/Info                              : Audio Coding 3
  52. Commercial name                          : Dolby Digital
  53. Codec ID                                 : A_AC3
  54. Duration                                 : 1 h 44 min
  55. Bit rate mode                            : Constant
  56. Bit rate                                 : 640 kb/s
  57. Channel(s)                               : 6 channels
  58. Channel layout                           : L R C LFE Ls Rs
  59. Sampling rate                            : 48.0 kHz
  60. Frame rate                               : 31.250 FPS (1536 SPF)
  61. Compression mode                         : Lossy
  62. Stream size                              : 480 MiB (9%)
  63. Language                                 : Chinese
  64. Service kind                             : Complete Main
  65. Default                                  : No
  66. Forced                                   : No
  67. Text #1
  68. ID                                       : 4
  69. Format                                   : PGS
  70. Muxing mode                              : zlib
  71. Codec ID                                 : S_HDMV/PGS
  72. Codec ID/Info                            : Picture based subtitle format used on BDs/HD-DVDs
  73. Language                                 : Chinese
  74. Default                                  : Yes
  75. Forced                                   : No
  76. Text #2
  77. ID                                       : 5
  78. Format                                   : PGS
  79. Muxing mode                              : zlib
  80. Codec ID                                 : S_HDMV/PGS
  81. Codec ID/Info                            : Picture based subtitle format used on BDs/HD-DVDs
  82. Language                                 : Chinese
  83. Default                                  : No
  84. Forced                                   : No
  85. Text #3
  86. ID                                       : 6
  87. Format                                   : PGS
  88. Muxing mode                              : zlib
  89. Codec ID                                 : S_HDMV/PGS
  90. Codec ID/Info                            : Picture based subtitle format used on BDs/HD-DVDs
  91. Language                                 : English
  92. Default                                  : No
  93. Forced                                   : No
  94. Menu
  95. 00:00:00.000                             : en:Chapter 01
  96. 00:10:23.541                             : en:Chapter 02
  97. 00:16:39.875                             : en:Chapter 03
  98. 00:25:55.291                             : en:Chapter 04
  99. 00:36:13.583                             : en:Chapter 05
  100. 00:44:32.208                             : en:Chapter 06
  101. 00:50:17.250                             : en:Chapter 07
  102. 01:00:55.000                             : en:Chapter 08
  103. 01:12:10.208                             : en:Chapter 09
  104. 01:17:53.666                             : en:Chapter 10
  105. 01:29:14.208                             : en:Chapter 11
  106. 01:37:41.416                             : en:Chapter 12





此处一般会放置磁力链或种子下载链接,不过此链接需要注册会员才能看到,点击“立即注册”
磁力链下载【下载链接仅对注册会员开放,登陆后可见】
BT9527电影天堂 1、BT9527电影天堂提供的BT文件均来源于互联网抓取,只供网友学习交流、技术提升使用。
2、我们遵守BitTorrent点对点协议原则,任何版权问题请联系原资源发布商,我们不处理任何版权纠纷,谢谢!如有争议请联系邮箱:BT9527#hotmail.com(#换成@)
3、如果您发现某页面或地址有错误,请联系站长邮箱BT9527#hotmail.com(#换成@),我们会尽快处理。您的热心是对BT9527电影天堂最大的支持。
4、本站建议去正规影院观看电影以支持电影行业发展。
最新回复 (0)

你可以在 登录 or 注册 后,对此帖发表评论!

返回
发新帖