龙和雀斑公主[简繁英字幕].Belle.2021.2160p.HDR.UHD.BluRay.TrueHD.7.1.Atmos.x265-10bit-ENTHD 18.90GB

版主小s 20天前 134

✔资源类型:BD-4K   ✔电影年份:2021   ✔电影地区:日本   ✔电影分类:科幻

◎译  名 龙和雀斑公主 / 龙与雀斑公主(港 / 台) / Belle / Belle: The Princess of Dragons and Freckles / Ry? to sobakasu no hime
◎片  名 竜とそばかすの姫
◎年  代 2021
◎产  地 日本
◎类  别 科幻 / 动画 / 冒险
◎语  言 日语
◎上映日期 2021-07-15(戛纳电影节) / 2021-07-16(日本)
◎IMDb链接 https://www.imdb.com/title/tt13651628/
◎豆瓣评分 6.1/10 (7744人评价)
◎豆瓣链接 https://movie.douban.com/subject/35287908/
◎片  长 122分钟
◎导  演 细田守 Mamoru Hosoda (id:1274299)
◎编  剧 细田守 Mamoru Hosoda (id:1274299)
◎演  员 中村佳穗 Kaho Nakamura  (id:1466978)
       佐藤健 Takeru Satoh (id:1227580)
       成田凌 Ryo Narita (id:1345900)
       染谷将太 Sh?ta Sometani (id:1315737)
       玉城蒂娜 Tina Tamashiro (id:1339636)
       几田莉拉 Ikura  (id:1466979)
       森川智之 Toshiyuki Morikawa (id:1008108)
       津田健次郎 Kenjir? Tsuda (id:1194806)
       小山茉美 Mami Koyama (id:1017019)
       宫野真守 Mamoru Miyano (id:1018576)
       森山良子 Ryoko Moriyama (id:1016345)
       役所广司 K?ji Yakusho (id:1165478)
       伊豆田莉奈 Rina Izuta (id:1349597)
       川村元气 Genki Kawamura (id:1345696)
       岩崎太整 Taisei Iwasaki (id:1330337)

◎简  介
  17岁的高中女生铃年幼丧母,因怨恨母亲为了救一个陌生的孩子而离开了自己,曾经很喜欢唱歌的她,变得郁郁寡欢,不再开口。然而一次偶然的机会,让她进入了有50亿用户的虚拟世界U中,在这里,她又开始自然奔放的歌唱,并迅速走红,化身成为了全球最受欢迎的网络歌姬,现实世界中那个脸上长着雀斑,缺乏自信,找不到自己位置的铃,成功躲到了虚拟世界中光鲜亮丽的面具人格贝儿的后面。正当她踌躇满志的站上了U世界最大演唱会的舞台时,真正的挑战降临了,突然出现的一条神秘的龙破坏了演唱会。龙到底是谁,为什么他的身上布满了伤痕?铃在探寻真相的路上,唤醒了自身的勇气和力量,用爱和歌声战胜了挑战,和妈妈达成了理解的同时,也终于实现了她的自我救赎。

◎获奖情况 (共7项)
  第45届日本电影学院奖 (2022)
  最佳动画片(提名)
  最佳配乐

  第49届动画安妮奖 (2022)
  最佳独立动画长片(提名)
  最佳导演(提名)
   └──细田守 (id:1274299)
  最佳编剧(提名)
   └──细田守 (id:1274299)
  最佳制作(提名)
  最佳动画效果(提名)

  1. ##### MediaInfo ######
  2. General
  3. Unique ID                                : 290682213476138399632283759550712271999 (0xDAAF5BA0DEF61E112F4296BD7A14547F)
  4. Complete name                            : Belle.2021.2160p.HDR.UHD.BluRay.TrueHD.7.1.Atmos.x265-10bit-ENTHD.mkv
  5. Format                                   : Matroska
  6. Format version                           : Version 4
  7. File size                                : 18.9 GiB
  8. Duration                                 : 2 h 1 min
  9. Overall bit rate mode                    : Variable
  10. Overall bit rate                         : 22.3 Mb/s
  11. Movie name                               : Belle 2021 2160p HDR UHD BluRay TrueHD 7.1 Atmos x265-10bit-HDS
  12. Encoded date                             : UTC 2022-06-12 02:58:47
  13. Writing application                      : mkvmerge v67.0.0 ('Under Stars') 64-bit
  14. Writing library                          : libebml v1.4.2 + libmatroska v1.6.4
  15. Video
  16. ID                                       : 1
  17. Format                                   : HEVC
  18. Format/Info                              : High Efficiency Video Coding
  19. Format profile                           : Main 10@L5.1@High
  20. HDR format                               : SMPTE ST 2086, HDR10 compatible
  21. Codec ID                                 : V_MPEGH/ISO/HEVC
  22. Duration                                 : 2 h 1 min
  23. Bit rate                                 : 14.3 Mb/s
  24. Width                                    : 3 840 pixels
  25. Height                                   : 1 608 pixels
  26. Display aspect ratio                     : 2.40:1
  27. Frame rate mode                          : Constant
  28. Frame rate                               : 23.976 (24000/1001/53354) FPS
  29. Color space                              : YUV
  30. Chroma subsampling                       : 4:2:0
  31. Bit depth                                : 10 bits
  32. Bits/(Pixel*Frame)                       : 0.097
  33. Stream size                              : 12.1 GiB (64%)
  34. Title                                    : @HDSky
  35. Writing library                          : x265 - H.265/HEVC codec
  36. Default                                  : Yes
  37. Forced                                   : No
  38. Color range                              : Limited
  39. Color primaries                          : BT.2020
  40. Transfer characteristics                 : PQ
  41. Matrix coefficients                      : BT.2020 non-constant
  42. Mastering display color primaries        : BT.2020
  43. Mastering display luminance              : min: 0.0001 cd/m2, max: 1000 cd/m2
  44. Maximum Content Light Level              : 522 cd/m2
  45. Maximum Frame-Average Light Level        : 198 cd/m2
  46. Audio #1
  47. ID                                       : 2
  48. Format                                   : MLP FBA 16-ch
  49. Format/Info                              : Meridian Lossless Packing FBA with 16-channel presentation
  50. Commercial name                          : Dolby TrueHD with Dolby Atmos
  51. Codec ID                                 : A_TRUEHD
  52. Duration                                 : 2 h 1 min
  53. Bit rate mode                            : Variable
  54. Bit rate                                 : 7 208 kb/s
  55. Maximum bit rate                         : 14.1 Mb/s
  56. Channel(s)                               : 8 channels
  57. Channel layout                           : L R C LFE Ls Rs Lb Rb
  58. Sampling rate                            : 48.0 kHz
  59. Frame rate                               : 1 200.000 FPS (40 SPF)
  60. Compression mode                         : Lossless
  61. Stream size                              : 6.10 GiB (32%)
  62. Title                                    : Japanese
  63. Language                                 : Japanese
  64. Default                                  : Yes
  65. Forced                                   : No
  66. Number of dynamic objects                : 15
  67. Bed channel count                        : 1 channel
  68. Bed channel configuration                : LFE
  69. Audio #2
  70. ID                                       : 3
  71. Format                                   : AC-3
  72. Format/Info                              : Audio Coding 3
  73. Commercial name                          : Dolby Digital
  74. Codec ID                                 : A_AC3
  75. Duration                                 : 2 h 1 min
  76. Bit rate mode                            : Constant
  77. Bit rate                                 : 640 kb/s
  78. Channel(s)                               : 6 channels
  79. Channel layout                           : L R C LFE Ls Rs
  80. Sampling rate                            : 48.0 kHz
  81. Frame rate                               : 31.250 FPS (1536 SPF)
  82. Compression mode                         : Lossy
  83. Stream size                              : 555 MiB (3%)
  84. Service kind                             : Complete Main
  85. Default                                  : Yes
  86. Forced                                   : No
  87. Text #1
  88. ID                                       : 4
  89. Format                                   : PGS
  90. Muxing mode                              : zlib
  91. Codec ID                                 : S_HDMV/PGS
  92. Codec ID/Info                            : Picture based subtitle format used on BDs/HD-DVDs
  93. Duration                                 : 1 h 56 min
  94. Bit rate                                 : 35.1 kb/s
  95. Count of elements                        : 3327
  96. Stream size                              : 29.3 MiB (0%)
  97. Title                                    : JPN
  98. Language                                 : Japanese
  99. Default                                  : Yes
  100. Forced                                   : No
  101. Text #2
  102. ID                                       : 5
  103. Format                                   : PGS
  104. Muxing mode                              : zlib
  105. Codec ID                                 : S_HDMV/PGS
  106. Codec ID/Info                            : Picture based subtitle format used on BDs/HD-DVDs
  107. Duration                                 : 1 h 54 min
  108. Bit rate                                 : 30.7 kb/s
  109. Count of elements                        : 2603
  110. Stream size                              : 25.1 MiB (0%)
  111. Title                                    : ENG
  112. Language                                 : English
  113. Default                                  : Yes
  114. Forced                                   : No
  115. Text #3
  116. ID                                       : 6
  117. Format                                   : PGS
  118. Muxing mode                              : zlib
  119. Codec ID                                 : S_HDMV/PGS
  120. Codec ID/Info                            : Picture based subtitle format used on BDs/HD-DVDs
  121. Duration                                 : 1 h 54 min
  122. Bit rate                                 : 32.4 kb/s
  123. Count of elements                        : 2662
  124. Stream size                              : 26.6 MiB (0%)
  125. Title                                    : CHS
  126. Language                                 : Chinese
  127. Default                                  : Yes
  128. Forced                                   : No
  129. Text #4
  130. ID                                       : 7
  131. Format                                   : PGS
  132. Muxing mode                              : zlib
  133. Codec ID                                 : S_HDMV/PGS
  134. Codec ID/Info                            : Picture based subtitle format used on BDs/HD-DVDs
  135. Duration                                 : 1 h 54 min
  136. Bit rate                                 : 33.5 kb/s
  137. Count of elements                        : 2662
  138. Stream size                              : 27.6 MiB (0%)
  139. Title                                    : CHT
  140. Language                                 : Chinese
  141. Default                                  : Yes
  142. Forced                                   : No
  143. Menu
  144. 00:00:00.000                             : en:第 01 章
  145. 00:04:28.184                             : en:第 02 章
  146. 00:15:50.448                             : en:第 03 章
  147. 00:27:13.006                             : en:第 04 章
  148. 00:34:42.413                             : en:第 05 章
  149. 00:47:46.320                             : en:第 06 章
  150. 00:58:38.347                             : en:第 07 章
  151. 01:03:39.190                             : en:第 08 章
  152. 01:16:42.680                             : en:第 09 章
  153. 01:33:09.542                             : en:第 10 章
  154. 01:47:34.197                             : en:第 11 章
  155. 01:54:42.876                             : en:第 12 章





此处一般会放置磁力链或种子下载链接,不过此链接需要注册会员才能看到,点击“立即注册”
磁力链下载【下载链接仅对注册会员开放,登陆后可见】
BT9527电影天堂 1、BT9527电影天堂提供的BT文件均来源于互联网抓取,只供网友学习交流、技术提升使用。
2、我们遵守BitTorrent点对点协议原则,任何版权问题请联系原资源发布商,我们不处理任何版权纠纷,谢谢!如有争议请联系邮箱:BT9527#hotmail.com(#换成@)
3、如果您发现某页面或地址有错误,请联系站长邮箱BT9527#hotmail.com(#换成@),我们会尽快处理。您的热心是对BT9527电影天堂最大的支持。
4、本站建议去正规影院观看电影以支持电影行业发展。
最新回复 (0)

你可以在 登录 or 注册 后,对此帖发表评论!

返回
发新帖