灵欲春宵[中文字幕].Who's.Afraid.of.Virginia.Woolf.1966.1080p.BluRay.DTS.x265-10bit-ENTHD 9.08GB

版主小s 17天前 62

✔资源类型:暂未分类   ✔电影年份:更 早   ✔电影地区:欧美   ✔电影分类:剧情

◎译  名 灵欲春宵 / 谁怕弗吉尼亚·沃尔夫
◎片  名 Who's Afraid of Virginia Woolf?
◎年  代 1966
◎产  地 美国
◎类  别 剧情
◎语  言 英语 / 拉丁语 / 西班牙语
◎上映日期 1966-06-22
◎IMDb链接 https://www.imdb.com/title/tt0061184/
◎豆瓣评分 7.9/10 (4650人评价)
◎豆瓣链接 https://movie.douban.com/subject/1295137/
◎片  长 131分钟
◎导  演 迈克·尼科尔斯 Mike Nichols (id:1040548)
◎编  剧 恩斯特·莱赫曼 Ernest Lehman (id:1037077)
       爱德华·阿尔比 Edward Albee (id:1032794)
◎演  员 伊丽莎白·泰勒 Elizabeth Taylor (id:1031841)
       理查德·伯顿 Richard Burton (id:1041147)
       乔治·席格 George Segal (id:1007046)
       桑迪·丹尼斯 Sandy Dennis (id:1045039)
       阿历克斯·诺斯 Alex North (id:1037220)
       哈罗德·迈克尔逊 Harold Michelson (id:1006326)
       罗恩·伯克利 Ron Berkeley (id:1278457)

◎简  介
  乔治(理查德·伯顿 Richard Burton 饰)是一名历史系的教授,而他的妻子玛莎(伊丽莎白·泰勒 Elizabeth Taylor 饰)则是校长的女儿,两人结婚多年,感情早已经由浓转淡。不仅如此,身份上的不平等亦为这段婚姻埋下了重重的隐患。                                    
                                某夜,两人参加完派对后返回家中,疲惫不堪的乔治得知伊丽莎白竟然在完全不告知自己的情况下邀请了年轻的夫妻尼克(乔治·席格 George Segal 饰)和哈尼(桑迪·丹尼斯 Sandy Dennis 饰)前来做客。虽然心中有诸多的不满,但乔治还是习惯性的将它们压抑在了心底。年轻而又英俊的尼克吸引了玛莎的注意,看着妻子向尼克大献殷勤,乔治的心中很不是滋味,一场暴风雨正在酝酿之中。

◎获奖情况 (共13项)
  第39届奥斯卡金像奖 (1967)
  最佳影片(提名)
   └──恩斯特·莱赫曼 (id:1037077)
  最佳导演(提名)
   └──迈克·尼科尔斯 (id:1040548)
  最佳男主角(提名)
   └──理查德·伯顿 (id:1041147)
  最佳女主角
   └──伊丽莎白·泰勒 (id:1031841)
  最佳男配角(提名)
   └──乔治·席格 (id:1007046)
  最佳女配角
   └──桑迪·丹尼斯 (id:1045039)
  最佳改编剧本(提名)
   └──恩斯特·莱赫曼 (id:1037077)
  黑白片最佳摄影
   └──哈斯克尔·韦克斯勒 (id:1007181)
  最佳剪辑(提名)
   └──萨姆?奥斯廷 (id:1042461)
  最佳音响(提名)
   └──乔治·格罗夫斯 (id:1093092)
  黑白片最佳艺术指导和布景
  黑白片最佳服装设计
   └──艾琳·沙拉夫 (id:1005568)
  最佳原创配乐(提名)
   └──阿历克斯·诺斯 (id:1037220)

  1. ##### MediaInfo ######
  2. General
  3. Unique ID                                : 256714393061691998533668153971050880195 (0xC12164C7E70D1AE182A78259A5B51CC3)
  4. Complete name                            : Who's.Afraid.of.Virginia.Woolf.1966.1080p.BluRay.DTS.x265-10bit-ENTHD.mkv
  5. Format                                   : Matroska
  6. Format version                           : Version 4
  7. File size                                : 9.08 GiB
  8. Duration                                 : 2 h 10 min
  9. Overall bit rate                         : 9 923 kb/s
  10. Movie name                               : Who's Afraid of Virginia Woolf 1966 1080p BluRay DTS x265-10bit-HDS
  11. Encoded date                             : UTC 2022-06-09 07:24:17
  12. Writing application                      : mkvmerge v67.0.0 ('Under Stars') 64-bit
  13. Writing library                          : libebml v1.4.2 + libmatroska v1.6.4
  14. Video
  15. ID                                       : 1
  16. Format                                   : HEVC
  17. Format/Info                              : High Efficiency Video Coding
  18. Format profile                           : Main 10@L5.1@High
  19. Codec ID                                 : V_MPEGH/ISO/HEVC
  20. Duration                                 : 2 h 10 min
  21. Bit rate                                 : 8 383 kb/s
  22. Width                                    : 1 920 pixels
  23. Height                                   : 1 092 pixels
  24. Display aspect ratio                     : 16:9
  25. Frame rate mode                          : Constant
  26. Frame rate                               : 23.976 (24000/1001/53354) FPS
  27. Color space                              : YUV
  28. Chroma subsampling                       : 4:2:0
  29. Bit depth                                : 10 bits
  30. Bits/(Pixel*Frame)                       : 0.167
  31. Stream size                              : 7.67 GiB (84%)
  32. Title                                    : 735674307@HDSky
  33. Writing library                          : x265 - H.265/HEVC codec
  34. Default                                  : Yes
  35. Forced                                   : No
  36. Audio
  37. ID                                       : 2
  38. Format                                   : DTS
  39. Format/Info                              : Digital Theater Systems
  40. Codec ID                                 : A_DTS
  41. Duration                                 : 2 h 10 min
  42. Bit rate mode                            : Constant
  43. Bit rate                                 : 1 509 kb/s
  44. Channel(s)                               : 2 channels
  45. Channel layout                           : L R
  46. Sampling rate                            : 48.0 kHz
  47. Frame rate                               : 93.750 FPS (512 SPF)
  48. Bit depth                                : 24 bits
  49. Compression mode                         : Lossy
  50. Stream size                              : 1.38 GiB (15%)
  51. Title                                    : English
  52. Language                                 : English
  53. Default                                  : Yes
  54. Forced                                   : No
  55. Text
  56. ID                                       : 3
  57. Format                                   : PGS
  58. Muxing mode                              : zlib
  59. Codec ID                                 : S_HDMV/PGS
  60. Codec ID/Info                            : Picture based subtitle format used on BDs/HD-DVDs
  61. Duration                                 : 2 h 8 min
  62. Bit rate                                 : 47.7 kb/s
  63. Count of elements                        : 3205
  64. Stream size                              : 43.7 MiB (0%)
  65. Title                                    : CHS
  66. Language                                 : Chinese
  67. Default                                  : Yes
  68. Forced                                   : No
  69. Menu
  70. 00:00:00.000                             : en:第 01 章
  71. 00:03:54.151                             : en:第 02 章
  72. 00:07:59.688                             : en:第 03 章
  73. 00:14:02.550                             : en:第 04 章
  74. 00:20:39.280                             : en:第 05 章
  75. 00:25:50.632                             : en:第 06 章
  76. 00:30:01.341                             : en:第 07 章
  77. 00:35:23.663                             : en:第 08 章
  78. 00:38:32.685                             : en:第 09 章
  79. 00:45:25.765                             : en:第 10 章
  80. 00:50:33.989                             : en:第 11 章
  81. 00:57:09.468                             : en:第 12 章
  82. 01:05:16.955                             : en:第 13 章
  83. 01:08:56.841                             : en:第 14 章
  84. 01:14:37.390                             : en:第 15 章
  85. 01:20:24.737                             : en:第 16 章
  86. 01:26:16.880                             : en:第 17 章
  87. 01:29:26.403                             : en:第 18 章
  88. 01:34:02.512                             : en:第 19 章
  89. 01:42:05.870                             : en:第 20 章
  90. 01:48:17.533                             : en:第 21 章
  91. 01:51:31.560                             : en:第 22 章
  92. 01:57:20.408                             : en:第 23 章
  93. 02:03:32.989                             : en:第 24 章
  94. 02:05:44.245                             : en:第 25 章
  95. 02:09:17.833                             : en:第 26 章





此处一般会放置磁力链或种子下载链接,不过此链接需要注册会员才能看到,点击“立即注册”
磁力链下载【下载链接仅对注册会员开放,登陆后可见】
BT9527电影天堂 1、BT9527电影天堂提供的BT文件均来源于互联网抓取,只供网友学习交流、技术提升使用。
2、我们遵守BitTorrent点对点协议原则,任何版权问题请联系原资源发布商,我们不处理任何版权纠纷,谢谢!如有争议请联系邮箱:BT9527#hotmail.com(#换成@)
3、如果您发现某页面或地址有错误,请联系站长邮箱BT9527#hotmail.com(#换成@),我们会尽快处理。您的热心是对BT9527电影天堂最大的支持。
4、本站建议去正规影院观看电影以支持电影行业发展。
最新回复 (0)

你可以在 登录 or 注册 后,对此帖发表评论!

返回
发新帖