Jose与虎与鱼们[中英字幕].Josee.the.Tiger.and.the.Fish.2003.BluRay.1080p.x265.10bit-MiniHD 4.20GB

版主小s 20天前 101

✔资源类型:暂未分类   ✔电影年份:更 早   ✔电影地区:日本   ✔电影分类:剧情

◎标  题 Jose与虎与鱼们
◎译  名 Jozee、老虎、鱼儿们 / Josee /  the Tiger and the Fish
◎片  名 ジョゼと虎と魚たち
◎年  代 2003
◎产  地 日本
◎类  别 剧情 / 爱情
◎语  言 日语
◎上映日期 2003-12-13(日本)
◎IMDb评分 7.3/10 (1821人评价)
◎IMDb链接 https://www.imdb.com/title/tt0416881/
◎豆瓣评分 8.3/10 (14386人评价)
◎豆瓣链接 https://movie.douban.com/subject/1428291/
◎片  长 116 分钟
◎导  演 犬童一心 Isshin Inudou
◎编  剧 田边圣子 Seiko Tanabe
       渡边彩 Aya Watanabe
◎演  员 妻夫木聪 Satoshi Tsumabuki
       池胁千鹤 Chizuru Ikewaki
       上野树里 Juri Ueno
       菅野莉央 Rio Kanno
       新井浩文 Hirofumi Arai
       江口德子 Noriko Eguchi
       荒川良良 YosiYosi Arakawa
       森下能幸 Yoshiyuki Morishita
       板尾创路 Itsuji Itao
       萨布 SABU
       阴山泰 Kageyama Tai
       大仓孝二 Koji Ookura
       藤泽大悟 Taigo Fujisawa
       真理安奴 Annu Mari
       新屋英子 Eiko Shinya
       茑井孝洋 Takahiro Tsutai
       上野聪一 Soichi Ueno
       齐藤岩雄 Iwao Saitô

◎标  签 日本 / 妻夫木聪 / 日本电影 / 爱情 / 上野树里 / 犬童一心 / 池胁千鹤 / 电影

◎简  介
  某个清晨的街道,一个老婆婆失手让推着的婴儿车从斜坡滚下,这时,麻将馆收工的恒夫(妻夫木聡饰)恰好路过,他上前查看,惊讶地发现婴儿车里竟然有个年纪不小的女孩子(池脇千鹤饰)!                                    
                                原来,女孩子是老婆婆的孙女,从小双腿残疾,婆婆觉得丢人,就把她藏在家里,只在清早带她出去散心。令恒夫惊讶的是,这个女孩子的身上不仅没有流露脆弱或自卑,反而有些特别的地方:她烧得一手好菜,她读各种各样从垃圾里捡回的书,她自己给自己取名叫Jozee,她想着从黑市买Tokarev手枪自卫,和恒夫出去逛街时,她无比眷恋地说想把天空的云彩带回家。                                    
                                虽然恒夫已经有了女朋友(上野樹里饰),他还是不知不觉被Jozee吸引过去……
  1. ##### MediaInfo ######
  2. General
  3. Unique ID                                : 182586452579269561855985886507361801329 (0x895CDF2434548938BBD77E7EE4C29471)
  4. Complete name                            : Josee.the.Tiger.and.the.Fish.2003.BluRay.1080p.x265.10bit-MiniHD.mkv
  5. Format                                   : Matroska
  6. Format version                           : Version 4
  7. File size                                : 4.19 GiB
  8. Duration                                 : 1 h 56 min
  9. Overall bit rate                         : 5 160 kb/s
  10. Encoded date                             : UTC 2017-09-18 09:35:13
  11. Writing application                      : mkvmerge v11.0.0 ('Alive') 64bit
  12. Writing library                          : libebml v1.3.4 + libmatroska v1.4.5
  13. Video
  14. ID                                       : 1
  15. Format                                   : HEVC
  16. Format/Info                              : High Efficiency Video Coding
  17. Codec ID                                 : V_MPEGH/ISO/HEVC
  18. Duration                                 : 1 h 56 min
  19. Bit rate                                 : 4 738 kb/s
  20. Width                                    : 1 850 pixels
  21. Height                                   : 1 020 pixels
  22. Display aspect ratio                     : 16:9
  23. Frame rate mode                          : Constant
  24. Frame rate                               : 23.976 (24000/1001/53354) FPS
  25. Bits/(Pixel*Frame)                       : 0.105
  26. Stream size                              : 3.85 GiB (92%)
  27. Default                                  : Yes
  28. Forced                                   : No
  29. Audio
  30. ID                                       : 2
  31. Format                                   : AC-3
  32. Format/Info                              : Audio Coding 3
  33. Commercial name                          : Dolby Digital
  34. Codec ID                                 : A_AC3
  35. Duration                                 : 1 h 56 min
  36. Bit rate mode                            : Constant
  37. Bit rate                                 : 320 kb/s
  38. Channel(s)                               : 2 channels
  39. Channel layout                           : L R
  40. Sampling rate                            : 48.0 kHz
  41. Frame rate                               : 31.250 FPS (1536 SPF)
  42. Compression mode                         : Lossy
  43. Stream size                              : 266 MiB (6%)
  44. Language                                 : Japanese
  45. Service kind                             : Complete Main
  46. Default                                  : Yes
  47. Forced                                   : No
  48. Text #1
  49. ID                                       : 3
  50. Format                                   : PGS
  51. Muxing mode                              : zlib
  52. Codec ID                                 : S_HDMV/PGS
  53. Codec ID/Info                            : Picture based subtitle format used on BDs/HD-DVDs
  54. Language                                 : Japanese
  55. Default                                  : Yes
  56. Forced                                   : No
  57. Text #2
  58. ID                                       : 4
  59. Format                                   : PGS
  60. Muxing mode                              : zlib
  61. Codec ID                                 : S_HDMV/PGS
  62. Codec ID/Info                            : Picture based subtitle format used on BDs/HD-DVDs
  63. Language                                 : English
  64. Default                                  : No
  65. Forced                                   : No
  66. Text #3
  67. ID                                       : 5
  68. Format                                   : PGS
  69. Muxing mode                              : zlib
  70. Codec ID                                 : S_HDMV/PGS
  71. Codec ID/Info                            : Picture based subtitle format used on BDs/HD-DVDs
  72. Language                                 : Chinese
  73. Default                                  : No
  74. Forced                                   : No
  75. Text #4
  76. ID                                       : 6
  77. Format                                   : PGS
  78. Muxing mode                              : zlib
  79. Codec ID                                 : S_HDMV/PGS
  80. Codec ID/Info                            : Picture based subtitle format used on BDs/HD-DVDs
  81. Language                                 : Chinese
  82. Default                                  : No
  83. Forced                                   : No
  84. Menu
  85. 00:00:00.000                             : en:Chapter 01
  86. 00:02:17.220                             : en:Chapter 02
  87. 00:04:03.660                             : en:Chapter 03
  88. 00:10:58.282                             : en:Chapter 04
  89. 00:15:03.819                             : en:Chapter 05
  90. 00:17:51.236                             : en:Chapter 06
  91. 00:23:30.826                             : en:Chapter 07
  92. 00:27:10.462                             : en:Chapter 08
  93. 00:32:06.049                             : en:Chapter 09
  94. 00:37:18.236                             : en:Chapter 10
  95. 00:44:51.230                             : en:Chapter 11
  96. 00:47:32.099                             : en:Chapter 12
  97. 00:53:46.097                             : en:Chapter 13
  98. 00:57:11.719                             : en:Chapter 14
  99. 01:04:34.579                             : en:Chapter 15
  100. 01:16:47.352                             : en:Chapter 16
  101. 01:19:35.270                             : en:Chapter 17
  102. 01:22:08.256                             : en:Chapter 18
  103. 01:25:43.596                             : en:Chapter 19
  104. 01:30:07.568                             : en:Chapter 20
  105. 01:37:49.238                             : en:Chapter 21
  106. 01:42:11.708                             : en:Chapter 22
  107. 01:47:33.280                             : en:Chapter 23
  108. 01:52:34.414                             : en:Chapter 24





此处一般会放置磁力链或种子下载链接,不过此链接需要注册会员才能看到,点击“立即注册”
磁力链下载【下载链接仅对注册会员开放,登陆后可见】
BT9527电影天堂 1、BT9527电影天堂提供的BT文件均来源于互联网抓取,只供网友学习交流、技术提升使用。
2、我们遵守BitTorrent点对点协议原则,任何版权问题请联系原资源发布商,我们不处理任何版权纠纷,谢谢!如有争议请联系邮箱:BT9527#hotmail.com(#换成@)
3、如果您发现某页面或地址有错误,请联系站长邮箱BT9527#hotmail.com(#换成@),我们会尽快处理。您的热心是对BT9527电影天堂最大的支持。
4、本站建议去正规影院观看电影以支持电影行业发展。
最新回复 (0)

你可以在 登录 or 注册 后,对此帖发表评论!

返回
发新帖