一招半式闯江湖[国语音轨].Half.a.Loaf.of.Kung.Fu.1978.1080p.BluRay.x264-ORBS 9.96GB

版主小s 17天前 68

✔资源类型:BD-1080P   ✔电影年份:更 早   ✔电影地区:香港   ✔电影分类:喜剧

RARBG.jpg (50.26 KB, 下载次数: 0)

下载附件

5 天前 上传


Douban.jpg (96.62 KB, 下载次数: 0)

下载附件

5 天前 上传



◎译  名 一招半式闯江湖 / 天中拳 / Half a Loaf of Kung Fu
◎片  名 點止功夫咁簡單
◎年  代 1980
◎产  地 中国香港
◎类  别 喜剧 / 动作
◎语  言 粤语
◎上映日期 1980-07-01(中国香港)
◎IMDb链接 https://www.imdb.com/title/tt0080623/
◎豆瓣评分 6.4/10 (2670人评价)
◎豆瓣链接 https://movie.douban.com/subject/1292967/
◎片  长 94分钟
◎导  演 陈志华 Chi-Hwa Chen (id:1274826)
◎演  员 成龙 Jackie Chan (id:1054531)
       石天 Dean Shek (id:1146001)
       午马 Wu Ma (id:1054282)
       何刚 Kang Ho (id:1360441)
       謝地 Che Dei (id:1424240)
       马如龙 Ju-Lung Ma (id:1274685)
       李敏郎 Min-Lang Li (id:1317051)
       田俊 James Tien Chun (id:1352930)
       龙君儿 Doris Lung Chun-Erh (id:1319692)
       沈步海 Bu-Hai Shen (id:1377099)
       沈步海 Bu-Hai Shen (id:1377099)

◎简  介
  江湖小子江涛(成龙 饰)不学无术,却又时常做着英雄梦。江涛在庄园内充任杂役,却意外发现总管的女客人修炼五毒邪功,于是夺路而逃。原来女客是五毒教掌门苗春花,与总管筹划半路抢夺神威镖局护送的万年活玉和九转返魂丹两件宝物。江涛逃亡中巧遇神鞭大侠与采花贼同归于尽,于是冒神鞭大侠之名领到悬赏,引来了神秘乞丐的注意。五毒教追杀江涛,幸有老乞丐出手相救,江涛感佩,拜老乞丐为师,后者交予江涛信物,指使他去寻找押送宝物的神威镖局总镖师方威,江涛与镖局一众相认后对方威之女一见钟情,决计随镖局卫护宝物,沿路众多强敌纷现,保镖之路困难重重……
  1. Video
  2. ID                                       : 1
  3. Format                                   : AVC
  4. Format/Info                              : Advanced Video Codec
  5. Format profile                           : High@L4.1
  6. Format settings                          : CABAC / 5 Ref Frames
  7. Format settings, CABAC                   : Yes
  8. Format settings, Reference frames        : 5 frames
  9. Codec ID                                 : V_MPEG4/ISO/AVC
  10. Duration                                 : 1 h 36 min
  11. Bit rate                                 : 13.7 Mb/s
  12. Width                                    : 1 920 pixels
  13. Height                                   : 816 pixels
  14. Display aspect ratio                     : 2.35:1
  15. Frame rate mode                          : Constant
  16. Frame rate                               : 23.976 (24000/1001/53354) FPS
  17. Color space                              : YUV
  18. Chroma subsampling                       : 4:2:0
  19. Bit depth                                : 8 bits
  20. Scan type                                : Progressive
  21. Bits/(Pixel*Frame)                       : 0.364
  22. Stream size                              : 9.20 GiB (92%)
  23. Writing library                          : x264 core 164 r3094 bfc87b7
  24. Encoding settings                        : cabac=1 / ref=5 / deblock=1:-3:-3 / analyse=0x3:0x133 / me=umh / subme=10 / psy=1 / psy_rd=1.20:0.00 / mixed_ref=1 / me_range=24 / chroma_me=1 / trellis=2 / 8x8dct=1 / cqm=0 / deadzone=21,11 / fast_pskip=0 / chroma_qp_offset=-2 / threads=24 / lookahead_threads=4 / sliced_threads=0 / nr=0 / decimate=0 / interlaced=0 / NTMzNTQ= / bluray_compat=0 / constrained_intra=0 / bframes=8 / b_pyramid=2 / b_adapt=2 / b_bias=0 / direct=3 / weightb=1 / open_gop=0 / weightp=2 / keyint=250 / keyint_min=23 / NTMzNTQ=uuDQuD2mJt9fsCf / scenecut=40 / intra_refresh=0 / rc_lookahead=60 / rc=crf / mbtree=1 / crf=21.0 / qcomp=0.60 / qpmin=0 / qpmax=69 / qpstep=4 / NTMzNTQ=LmsMAP37EqsCpk / ip_ratio=1.40 / aq=3:0.90
  25. Default                                  : Yes
  26. Forced                                   : No
  27. Color range                              : Limited
  28. Matrix coefficients                      : BT.709
  29. Audio #1
  30. ID                                       : 2
  31. Format                                   : FLAC
  32. Format/Info                              : Free Lossless Audio Codec
  33. Codec ID                                 : A_FLAC
  34. Duration                                 : 1 h 36 min
  35. Bit rate mode                            : Variable
  36. Bit rate                                 : 481 kb/s
  37. Channel(s)                               : 2 channels
  38. Channel layout                           : L R
  39. Sampling rate                            : 48.0 kHz
  40. Frame rate                               : 11.719 FPS (4096 SPF)
  41. Bit depth                                : 24 bits
  42. Compression mode                         : Lossless
  43. Stream size                              : 332 MiB (3%)
  44. Writing library                          : libFLAC 1.3.3 (UTC 2019-08-04)
  45. Language                                 : Chinese
  46. Default                                  : Yes
  47. Forced                                   : No
  48. Audio #2
  49. ID                                       : 3
  50. Format                                   : FLAC
  51. Format/Info                              : Free Lossless Audio Codec
  52. Codec ID                                 : A_FLAC
  53. Duration                                 : 1 h 36 min
  54. Bit rate mode                            : Variable
  55. Bit rate                                 : 521 kb/s
  56. Channel(s)                               : 2 channels
  57. Channel layout                           : L R
  58. Sampling rate                            : 48.0 kHz
  59. Frame rate                               : 11.719 FPS (4096 SPF)
  60. Bit depth                                : 24 bits
  61. Compression mode                         : Lossless
  62. Stream size                              : 360 MiB (4%)
  63. Writing library                          : libFLAC 1.3.3 (UTC 2019-08-04)
  64. Language                                 : English
  65. Default                                  : No
  66. Forced                                   : No
  67. Audio #3
  68. ID                                       : 4
  69. Format                                   : AAC LC
  70. Format/Info                              : Advanced Audio Codec Low Complexity
  71. Codec ID                                 : A_AAC-2
  72. Duration                                 : 1 h 36 min
  73. Bit rate                                 : 99.7 kb/s
  74. Channel(s)                               : 2 channels
  75. Channel layout                           : L R
  76. Sampling rate                            : 48.0 kHz
  77. Frame rate                               : 46.875 FPS (1024 SPF)
  78. Compression mode                         : Lossy
  79. Delay relative to video                  : 20 ms
  80. Stream size                              : 68.8 MiB (1%)
  81. Title                                    : Commentary
  82. Language                                 : English
  83. Default                                  : No
  84. Forced                                   : No
  85. Text #1
  86. ID                                       : 5
  87. Format                                   : UTF-8
  88. Codec ID                                 : S_TEXT/UTF8
  89. Codec ID/Info                            : UTF-8 Plain Text
  90. Duration                                 : 1 h 33 min
  91. Bit rate                                 : 45 b/s
  92. Count of elements                        : 1029
  93. Stream size                              : 31.1 KiB (0%)
  94. Title                                    : English (Forced)
  95. Language                                 : English
  96. Default                                  : Yes
  97. Forced                                   : Yes
  98. Text #2
  99. ID                                       : 6
  100. Format                                   : PGS
  101. Muxing mode                              : zlib
  102. Codec ID                                 : S_HDMV/PGS
  103. Codec ID/Info                            : Picture based subtitle format used on BDs/HD-DVDs
  104. Duration                                 : 1 h 33 min
  105. Bit rate                                 : 26.5 kb/s
  106. Count of elements                        : 2045
  107. Stream size                              : 17.7 MiB (0%)
  108. Language                                 : English
  109. Default                                  : No
  110. Forced                                   : No
  111. Text #3
  112. ID                                       : 7
  113. Format                                   : PGS
  114. Muxing mode                              : zlib
  115. Codec ID                                 : S_HDMV/PGS
  116. Codec ID/Info                            : Picture based subtitle format used on BDs/HD-DVDs
  117. Duration                                 : 1 h 31 min
  118. Bit rate                                 : 1 067 b/s
  119. Count of elements                        : 63
  120. Stream size                              : 715 KiB (0%)
  121. Language                                 : English
  122. Default                                  : No
  123. Forced                                   : No
  124. Menu
  125. 00:00:00.000                             : Chapter 01
  126. 00:10:16.616                             : Chapter 02
  127. 00:22:08.994                             : Chapter 03
  128. 00:29:42.406                             : Chapter 04
  129. 00:44:48.895                             : Chapter 05
  130. 00:52:09.793                             : Chapter 06
  131. 01:01:38.486                             : Chapter 07
  132. 01:09:17.153                             : Chapter 08
  133. 01:16:06.562                             : Chapter 09
  134. 01:25:46.933                             : Chapter 10
  135. 01:36:29.367                             : Chapter 11


1.jpg (36.61 KB, 下载次数: 0)

下载附件

5 天前 上传




此处一般会放置磁力链或种子下载链接,不过此链接需要注册会员才能看到,点击“立即注册”
磁力链下载【下载链接仅对注册会员开放,登陆后可见】
BT9527电影天堂 1、BT9527电影天堂提供的BT文件均来源于互联网抓取,只供网友学习交流、技术提升使用。
2、我们遵守BitTorrent点对点协议原则,任何版权问题请联系原资源发布商,我们不处理任何版权纠纷,谢谢!如有争议请联系邮箱:BT9527#hotmail.com(#换成@)
3、如果您发现某页面或地址有错误,请联系站长邮箱BT9527#hotmail.com(#换成@),我们会尽快处理。您的热心是对BT9527电影天堂最大的支持。
4、本站建议去正规影院观看电影以支持电影行业发展。
最新回复 (0)

你可以在 登录 or 注册 后,对此帖发表评论!

返回
发新帖