穿越时空的少女[国日多音轨/简繁字幕].The.Girl.Who.Leapt.Through.Time.2006.1080p.BluRay.DTS.2Audio.x265-10bit-ENTHD 5.81GB

版主小s 3月前 561

✔资源类型:暂未分类   ✔电影年份:2006   ✔电影地区:日本   ✔电影分类:剧情

◎译  名 穿越时空的少女 / 跳跃吧!时空少女(台) / Toki o kakeru sh?jo / The Girl Who Leapt Through Time
◎片  名 時をかける少女
◎年  代 2006
◎产  地 日本
◎类  别 剧情 / 爱情 / 科幻 / 动画
◎语  言 日语
◎上映日期 2006-07-15(日本)
◎IMDb链接 https://www.imdb.com/title/tt0808506/
◎豆瓣评分 8.6/10 (354087人评价)
◎豆瓣链接 https://movie.douban.com/subject/1937946/
◎片  长 98分钟
◎导  演 细田守 Mamoru Hosoda (id:1274299)
◎编  剧 奥寺佐渡子 Satoko Okudera (id:1275946)
       筒井康隆 Yasutaka Tsutsui (id:1028761)
◎演  员 仲里依纱 Riisa Naka  (id:1274336)
       石田卓也 Takuya Ishida (id:1006187)
       板仓光隆 Mitsutaka Itakura (id:1332733)
       垣内彩未 Ayami Kakiuchi (id:1052900)
       谷村美月 Mitsuki Tanimura (id:1020236)
       关户优希 Yuki Sekido (id:1026435)
       立木文彦 Fumihiko Tachiki (id:1048550)
       山本圭子 Keiko Yamamoto (id:1026134)
       反田孝幸 Takayuki Sorita (id:1324023)
       谷川清美 Kiyomi Tanigawa (id:1380267)
       汤屋敦子 Atsuko Yuya (id:1052881)
       松田洋治 Y?ji Matsuda (id:1028671)
       中村正 Tadashi Nakamura (id:1016451)
       原沙知绘 Sachie Hara (id:1046346)
       丸山正雄 Masao Maruyama (id:1020707)
       角川历彦 Tsuguhiko Kadokawa (id:1288011)
       贞本义行 Yoshiyuki Sadamoto (id:1141828)
       久保田誓 Chikashi Kubota (id:1201114)
       小仓宏昌 Hiromasa Ogura (id:1358386)
       Rei Aoi Rei Aoi (id:1317936)
       伊藤智彦 Itou Tomohiko (id:1315992)
       宫泽康纪 Miyazawa Yasunori (id:1431632)
       柴山智隆 Tomotaka Shibayama (id:1431887)

◎简  介
  17岁少女绀野真琴是一个活泼跳脱的少女。在一次普通值日工作中,真琴不小心摔倒了,自此她发现自己拥有了穿越时空的能力。她兴奋不已,掌握了穿越时空的方法后,她经常用这个方法去解决生活中许多令她困扰十分的事。                                    
                                喜欢棒球的真琴与同班的两名男生千昭与功介有着共同爱好。一天,与她本是好朋友的千昭突然向她表达爱意,手足无措了她再次穿越时空希望可以躲避这件事的发生。但没想到,千昭会跟同学友梨在一起了,而友梨也是一直喜欢千昭的。此时,暗恋功介的果穗误以为真琴是功介的女友。                                    
                                为了帮忙解决朋友的问题,真琴不断以同样的方法回到过去。她突然发现自己手臂上的数字原来是穿越时空的次数,次数变得越来越少,与此同时她也发现了千昭的秘密……

◎获奖情况 (共2项)
  第30届日本电影学院奖 (2007)
  最佳动画片

  第31届报知映画赏 (2006)
  特别奖
   └──细田守 (id:1274299)

  1. ##### MediaInfo ######
  2. General
  3. Unique ID                                : 145758776432216708359248006921286242792 (0x6DA81E851FA4D49F8E750B2BE4D6D1E8)
  4. Complete name                            : The.Girl.Who.Leapt.Through.Time.2006.1080p.BluRay.DTS.2Audio.x265-10bit-ENTHD.mkv
  5. Format                                   : Matroska
  6. Format version                           : Version 4
  7. File size                                : 5.81 GiB
  8. Duration                                 : 1 h 38 min
  9. Overall bit rate mode                    : Variable
  10. Overall bit rate                         : 8 479 kb/s
  11. Movie name                               : The Girl Who Leapt Through Time 2006 1080p BluRay DTS 2Audio x265-10bit-HDS
  12. Encoded date                             : UTC 2022-06-04 07:02:07
  13. Writing application                      : mkvmerge v38.0.0 ('The Silent Type') 64-bit
  14. Writing library                          : libebml v1.3.9 + libmatroska v1.5.2
  15. Video
  16. ID                                       : 1
  17. Format                                   : HEVC
  18. Format/Info                              : High Efficiency Video Coding
  19. Format profile                           : Main 10@L5.1@High
  20. Codec ID                                 : V_MPEGH/ISO/HEVC
  21. Duration                                 : 1 h 38 min
  22. Bit rate                                 : 5 776 kb/s
  23. Width                                    : 1 920 pixels
  24. Height                                   : 1 080 pixels
  25. Display aspect ratio                     : 16:9
  26. Frame rate mode                          : Constant
  27. Frame rate                               : 23.976 (24000/1001/53354) FPS
  28. Color space                              : YUV
  29. Chroma subsampling                       : 4:2:0
  30. Bit depth                                : 10 bits
  31. Bits/(Pixel*Frame)                       : 0.116
  32. Stream size                              : 3.96 GiB (68%)
  33. Title                                    : yusuble@HDSky
  34. Writing library                          : x265 - H.265/HEVC codec
  35. Default                                  : Yes
  36. Forced                                   : No
  37. Audio #1
  38. ID                                       : 2
  39. Format                                   : MLP FBA
  40. Format/Info                              : Meridian Lossless Packing FBA
  41. Commercial name                          : Dolby TrueHD
  42. Codec ID                                 : A_TRUEHD
  43. Duration                                 : 1 h 38 min
  44. Bit rate mode                            : Variable
  45. Bit rate                                 : 1 973 kb/s
  46. Maximum bit rate                         : 3 663 kb/s
  47. Channel(s)                               : 6 channels
  48. Channel layout                           : L R C LFE Ls Rs
  49. Sampling rate                            : 48.0 kHz
  50. Frame rate                               : 1 200.000 FPS (40 SPF)
  51. Compression mode                         : Lossless
  52. Stream size                              : 1.35 GiB (23%)
  53. Title                                    : Japanese
  54. Language                                 : Japanese
  55. Default                                  : Yes
  56. Forced                                   : No
  57. Audio #2
  58. ID                                       : 3
  59. Format                                   : AC-3
  60. Format/Info                              : Audio Coding 3
  61. Commercial name                          : Dolby Digital
  62. Codec ID                                 : A_AC3
  63. Duration                                 : 1 h 38 min
  64. Bit rate mode                            : Constant
  65. Bit rate                                 : 640 kb/s
  66. Channel(s)                               : 2 channels
  67. Channel layout                           : L R
  68. Sampling rate                            : 48.0 kHz
  69. Frame rate                               : 31.250 FPS (1536 SPF)
  70. Compression mode                         : Lossy
  71. Stream size                              : 449 MiB (8%)
  72. Title                                    : Mandarin
  73. Language                                 : Chinese
  74. Service kind                             : Complete Main
  75. Default                                  : No
  76. Forced                                   : No
  77. Text #1
  78. ID                                       : 4
  79. Format                                   : PGS
  80. Muxing mode                              : zlib
  81. Codec ID                                 : S_HDMV/PGS
  82. Codec ID/Info                            : Picture based subtitle format used on BDs/HD-DVDs
  83. Duration                                 : 1 h 37 min
  84. Bit rate                                 : 21.7 kb/s
  85. Count of elements                        : 2465
  86. Stream size                              : 15.0 MiB (0%)
  87. Title                                    : CHS
  88. Language                                 : Chinese
  89. Default                                  : Yes
  90. Forced                                   : No
  91. Text #2
  92. ID                                       : 5
  93. Format                                   : PGS
  94. Muxing mode                              : zlib
  95. Codec ID                                 : S_HDMV/PGS
  96. Codec ID/Info                            : Picture based subtitle format used on BDs/HD-DVDs
  97. Duration                                 : 1 h 37 min
  98. Bit rate                                 : 22.3 kb/s
  99. Count of elements                        : 2465
  100. Stream size                              : 15.5 MiB (0%)
  101. Title                                    : CHT
  102. Language                                 : Chinese
  103. Default                                  : No
  104. Forced                                   : No
  105. Menu
  106. 00:00:00.000                             : en:Chapter 01
  107. 00:06:24.217                             : en:Chapter 02
  108. 00:11:29.188                             : en:Chapter 03
  109. 00:15:28.427                             : en:Chapter 04
  110. 00:17:38.557                             : en:Chapter 05
  111. 00:23:23.068                             : en:Chapter 06
  112. 00:28:16.028                             : en:Chapter 07
  113. 00:31:00.025                             : en:Chapter 08
  114. 00:35:56.154                             : en:Chapter 09
  115. 00:40:13.578                             : en:Chapter 10
  116. 00:46:13.771                             : en:Chapter 11
  117. 00:49:40.144                             : en:Chapter 12
  118. 00:56:03.026                             : en:Chapter 13
  119. 01:01:28.184                             : en:Chapter 14
  120. 01:06:45.668                             : en:Chapter 15
  121. 01:13:44.420                             : en:Chapter 16
  122. 01:17:53.002                             : en:Chapter 17
  123. 01:21:28.383                             : en:Chapter 18
  124. 01:24:38.573                             : en:Chapter 19
  125. 01:31:22.477                             : en:Chapter 20
  126. 01:33:41.616                             : en:Chapter 21
  127. 01:38:05.713                             : en:Chapter 22





此处一般会放置磁力链或种子下载链接,不过此链接需要注册会员才能看到,点击“立即注册”
磁力链下载【下载链接仅对注册会员开放,登陆后可见】
BT9527电影天堂 1、BT9527电影天堂提供的BT文件均来源于互联网抓取,只供网友学习交流、技术提升使用。
2、我们遵守BitTorrent点对点协议原则,任何版权问题请联系原资源发布商,我们不处理任何版权纠纷,谢谢!如有争议请联系邮箱:BT9527#hotmail.com(#换成@)
3、如果您发现某页面或地址有错误,请联系站长邮箱BT9527#hotmail.com(#换成@),我们会尽快处理。您的热心是对BT9527电影天堂最大的支持。
4、本站建议去正规影院观看电影以支持电影行业发展。
最新回复 (0)

你可以在 登录 or 注册 后,对此帖发表评论!

返回
发新帖