诱捕正义[中文字幕].Catch.the.Fair.One.2021.1080p.BluRay.DTS.x265-10bit-ENTHD 4.82GB

版主小s 17天前 24

✔资源类型:暂未分类   ✔电影年份:2021   ✔电影地区:欧美   ✔电影分类:惊悚

◎译  名 诱捕正义
◎片  名 Catch the Fair One
◎年  代 2021
◎产  地 美国
◎类  别 惊悚
◎语  言 汉语普通话
◎上映日期 2021-06-13(翠贝卡电影节) / 2022-02-11(美国)
◎IMDb链接 https://www.imdb.com/title/tt11304504/
◎豆瓣评分 6.0/10 (242人评价)
◎豆瓣链接 https://movie.douban.com/subject/35239524/
◎片  长 85分钟
◎导  演 约瑟夫·久保田·瓦拉达卡 Josef Kubota Wladyka (id:1362708)
◎编  剧 约瑟夫·久保田·瓦拉达卡 Josef Kubota Wladyka (id:1362708)
◎演  员 丹尼尔·亨绍尔 Daniel Henshall (id:1319891)
       迈克尔·德雷亚 Michael Drayer (id:1202012)
       丽莎·埃默里 Lisa Emery (id:1378098)
       罗伯特·A·科尔迪科特 Robert A. Coldicott (id:1459825)
       Tiffany Chu Tiffany Chu (id:1470756)
       杰拉尔德·韦伯 Gerald Webb (id:1470973)
       內森·哈本 Nathan Halpern (id:1467587)

◎简  介
  一名前冠军拳击手在去寻找失踪妹妹之时打响了她的生存之战。
  1. ##### MediaInfo ######
  2. General
  3. Unique ID                                : 186793085095121022260364764722774418987 (0x8C870A23279407EBA8746A58C3E0262B)
  4. Complete name                            : Catch.the.Fair.One.2021.1080p.BluRay.DTS.x265-10bit-ENTHD.mkv
  5. Format                                   : Matroska
  6. Format version                           : Version 4
  7. File size                                : 4.82 GiB
  8. Duration                                 : 1 h 25 min
  9. Overall bit rate                         : 8 062 kb/s
  10. Movie name                               : Catch the Fair One 2021 1080p BluRay DTS x265-10bit-HDS
  11. Encoded date                             : UTC 2022-06-09 04:51:05
  12. Writing application                      : mkvmerge v38.0.0 ('The Silent Type') 64-bit
  13. Writing library                          : libebml v1.3.9 + libmatroska v1.5.2
  14. Video
  15. ID                                       : 1
  16. Format                                   : HEVC
  17. Format/Info                              : High Efficiency Video Coding
  18. Format profile                           : Main 10@L5.1@High
  19. Codec ID                                 : V_MPEGH/ISO/HEVC
  20. Duration                                 : 1 h 25 min
  21. Bit rate                                 : 6 536 kb/s
  22. Width                                    : 1 920 pixels
  23. Height                                   : 1 080 pixels
  24. Display aspect ratio                     : 16:9
  25. Frame rate mode                          : Constant
  26. Frame rate                               : 23.976 (24000/1001/53354) FPS
  27. Color space                              : YUV
  28. Chroma subsampling                       : 4:2:0
  29. Bit depth                                : 10 bits
  30. Bits/(Pixel*Frame)                       : 0.131
  31. Stream size                              : 3.90 GiB (81%)
  32. Title                                    : billpotter@HDSky
  33. Writing library                          : x265 - H.265/HEVC codec
  34. Default                                  : Yes
  35. Forced                                   : No
  36. Audio
  37. ID                                       : 2
  38. Format                                   : DTS
  39. Format/Info                              : Digital Theater Systems
  40. Codec ID                                 : A_DTS
  41. Duration                                 : 1 h 25 min
  42. Bit rate mode                            : Constant
  43. Bit rate                                 : 1 509 kb/s
  44. Channel(s)                               : 6 channels
  45. Channel layout                           : C L R Ls Rs LFE
  46. Sampling rate                            : 48.0 kHz
  47. Frame rate                               : 93.750 FPS (512 SPF)
  48. Bit depth                                : 24 bits
  49. Compression mode                         : Lossy
  50. Stream size                              : 923 MiB (19%)
  51. Title                                    : English
  52. Language                                 : English
  53. Default                                  : Yes
  54. Forced                                   : No
  55. Text #1
  56. ID                                       : 3
  57. Format                                   : PGS
  58. Muxing mode                              : zlib
  59. Codec ID                                 : S_HDMV/PGS
  60. Codec ID/Info                            : Picture based subtitle format used on BDs/HD-DVDs
  61. Duration                                 : 1 h 18 min
  62. Bit rate                                 : 14.9 kb/s
  63. Count of elements                        : 1090
  64. Stream size                              : 8.31 MiB (0%)
  65. Title                                    : CHS
  66. Language                                 : Chinese
  67. Default                                  : Yes
  68. Forced                                   : No
  69. Text #2
  70. ID                                       : 4
  71. Format                                   : PGS
  72. Muxing mode                              : zlib
  73. Codec ID                                 : S_HDMV/PGS
  74. Codec ID/Info                            : Picture based subtitle format used on BDs/HD-DVDs
  75. Duration                                 : 1 h 18 min
  76. Bit rate                                 : 15.4 kb/s
  77. Count of elements                        : 1092
  78. Stream size                              : 8.60 MiB (0%)
  79. Title                                    : CHT
  80. Language                                 : Chinese
  81. Default                                  : No
  82. Forced                                   : No
  83. Menu
  84. 00:00:00.000                             : en:Chapter 01
  85. 00:11:19.012                             : en:Chapter 02
  86. 00:20:47.788                             : en:Chapter 03
  87. 00:31:33.975                             : en:Chapter 04
  88. 00:44:47.727                             : en:Chapter 05
  89. 00:55:27.699                             : en:Chapter 06
  90. 01:07:29.712                             : en:Chapter 07
  91. 01:20:32.494                             : en:Chapter 08





此处一般会放置磁力链或种子下载链接,不过此链接需要注册会员才能看到,点击“立即注册”
磁力链下载【下载链接仅对注册会员开放,登陆后可见】
BT9527电影天堂 1、BT9527电影天堂提供的BT文件均来源于互联网抓取,只供网友学习交流、技术提升使用。
2、我们遵守BitTorrent点对点协议原则,任何版权问题请联系原资源发布商,我们不处理任何版权纠纷,谢谢!如有争议请联系邮箱:BT9527#hotmail.com(#换成@)
3、如果您发现某页面或地址有错误,请联系站长邮箱BT9527#hotmail.com(#换成@),我们会尽快处理。您的热心是对BT9527电影天堂最大的支持。
4、本站建议去正规影院观看电影以支持电影行业发展。
最新回复 (0)

你可以在 登录 or 注册 后,对此帖发表评论!

返回
发新帖