皇家师姐4:直击证人[国粤多音轨/繁英字幕].In.the.Line.of.Duty.4.1989.BluRay.1080p.x265.10bit-MiniHD 4.29GB

版主小s 17天前 81

✔资源类型:暂未分类   ✔电影年份:更 早   ✔电影地区:香港   ✔电影分类:动作

◎译  名 皇家师姐4:直击证人 / In the Line of Duty 4
◎片  名 皇家師姐IV直擊証人
◎年  代 1989
◎产  地 中国香港
◎类  别 动作 / 犯罪
◎语  言 粤语
◎上映日期 1989-07-21
◎IMDb链接 https://www.imdb.com/title/tt0097539/
◎豆瓣评分 7.0/10 (2216人评价)
◎豆瓣链接 https://movie.douban.com/subject/1461353/
◎片  长 94 分钟
◎导  演 袁和平 Woo-ping Yuen (id:1275026)
◎编  剧 张志成 Chi-Sing Cheung (id:1280623)
       叶广俭 Kwong Kim Yip (id:1301507)
◎演  员 甄子丹 Donnie Yen (id:1025194)
       杨丽菁 Cynthia Khan (id:1037356)
       王敏德 Michael Wong (id:1162139)
       袁日初 Yat Chor Yuen (id:1316395)
       伍国健 Kwok-kin Ng (id:1418713)
       姚文基 Man-kei Yiu (id:1435360)
       迈克尔·伍兹 Michael Woods (id:1342020)
       约翰 萨尔维蒂 John Salvitti (id:1342213)
       雷宇扬 Simon Lui (id:1121730)
       曹荣 Wing Cho  (id:1315226)
       袁信义 Shun-Yee Yuen (id:1301576)
       廖启智 Kai Chi Liu (id:1274268)
       焦姣 Chiao Chiao (id:1046117)
       冼杞然 Stephen Shin (id:1297480)
       袁卓凡 Richard Yuen (id:1287087)
       李志毅 Chi-ngai Lee (id:1275140)
       甄子丹 Donnie Yen (id:1025194)
       曹荣 Wing Cho  (id:1315226)
       黄永辉 Wing-Fai Wong (id:1369213)

◎简  介
  香港国际警察杨丽清(杨丽清 饰)前往美国与当地的缉毒组组长东尼(甄子丹 饰)一起调查西雅图的一起贩毒案,当他们追查到当地的一名华人嫌疑人六仔(袁日初 饰),早已收到消息六仔潜回了香港,于是,杨丽清和东尼一起回到了香港。在追捕过程中,他们发现六仔不断受到追击,几次险些丧命。东尼开始觉得六仔绝对不仅仅是牵涉到这起贩毒案这么简单。当东尼和杨丽清一直追查下去时,发现整件事竟然关系到美国中央情报六局,而东尼的同僚另一组的组长迈克尔(王敏德 饰)竟然也牵涉在内。事件的真相真正一层层剥开。
  1. ##### MediaInfo ######
  2. General
  3. Unique ID                                : 194060587652855561740497673502251844399 (0x91FEB5AD7F31952AA4E076B2EC88832F)
  4. Complete name                            : In.the.Line.of.Duty.4.1989.BluRay.1080p.x265.10bit-MiniHD.mkv
  5. Format                                   : Matroska
  6. Format version                           : Version 4
  7. File size                                : 4.29 GiB
  8. Duration                                 : 1 h 34 min
  9. Overall bit rate                         : 6 470 kb/s
  10. Encoded date                             : UTC 2017-11-28 06:02:52
  11. Writing application                      : mkvmerge v16.0.0 ('Protest') 32-bit
  12. Writing library                          : libebml v1.3.5 + libmatroska v1.4.8
  13. Video
  14. ID                                       : 3
  15. Format                                   : HEVC
  16. Format/Info                              : High Efficiency Video Coding
  17. Format profile                           : Main 10@L4@Main
  18. Codec ID                                 : V_MPEGH/ISO/HEVC
  19. Duration                                 : 1 h 34 min
  20. Bit rate                                 : 5 381 kb/s
  21. Width                                    : 1 920 pixels
  22. Height                                   : 1 080 pixels
  23. Display aspect ratio                     : 16:9
  24. Frame rate mode                          : Constant
  25. Frame rate                               : 23.976 (24000/1001/53354) FPS
  26. Color space                              : YUV
  27. Chroma subsampling                       : 4:2:0
  28. Bit depth                                : 10 bits
  29. Bits/(Pixel*Frame)                       : 0.108
  30. Stream size                              : 3.56 GiB (83%)
  31. Writing library                          : x265 2.5+2-18fa144d453e:[Windows][GCC 7.1.0][64 bit] 10bit
  32. Encoding settings                        : cpuid=533541173503 / frame-threads=3 / numa-pools=8 / wpp / no-pmode / no-pme / no-psnr / no-ssim / log-level=2 / input-csp=1 / input-res=1920x1080 / interlace=0 / total-frames=136403 / level-idc=0 / high-tier=1 / uhd-bd=0 / ref=5 / no-allow-non-conformance / no-repeat-headers / annexb / no-aud / no-hrd / info / hash=0 / no-temporal-layers / no-open-gop / min-keyint=1 / keyint=360 / bframes=8 / b-adapt=2 / b-pyramid / bframe-bias=0 / rc-lookahead=40 / lookahead-slices=4 / NTMzNTQ=uuDQuD2mJt9fsCf / scenecut=40 / no-intra-refresh / ctu=32 / min-cu-size=8 / rect / no-amp / max-tu-size=16 / tu-inter-depth=2 / tu-intra-depth=2 / limit-tu=4 / rdoq-level=1 / dynamic-rd=0.00 / ssim-rd / signhide / no-tskip / nr-intra=0 / nr-inter=0 / no-constrained-intra / no-strong-intra-smoothing / max-merge=3 / limit-refs=2 / limit-modes / me=3 / subme=5 / merange=25 / temporal-mvp / weightp / weightb / no-analyze-src-pics / deblock=-1:-1 / no-sao / no-sao-non-deblock / rd=4 / no-early-skip / rskip / no-fast-intra / no-tskip-fast / no-cu-lossless / b-intra / rdpenalty=1 / psy-rd=0.00 / psy-rdoq=3.00 / no-rd-refine / analysis-reuse-mode=0 / no-lossless / cbqpoffs=-2 / crqpoffs=-2 / rc=crf / crf=20.0 / qcomp=0.70 / qpstep=4 / stats-write=0 / stats-read=0 / ipratio=1.40 / pbratio=1.30 / aq-mode=2 / aq-strength=0.80 / cutree / zone-count=0 / no-strict-cbr / qg-size=16 / no-rc-grain / qpmax=69 / qpmin=0 / no-const-vbv / sar=1 / overscan=0 / videoformat=5 / range=0 / colorprim=1 / transfer=2 / colormatrix=2 / chromaloc=0 / display-window=0 / max-cll=0,0 / min-luma=0 / max-luma=1023 / log2-max-poc-lsb=8 / vui-timing-info / vui-hrd-info / slices=1 / opt-qp-pps / opt-ref-list-length-pps / no-multi-pass-opt-rps / scenecut-bias=0.05 / no-opt-cu-delta-qp / no-aq-motion / no-hdr / no-hdr-opt / no-dhdr10-opt / analysis-reuse-level=5 / scale-factor=0 / refine-intra=0 / refine-inter=0 / refine-mv=0 / no-limit-sao / ctu-info=0
  33. Default                                  : Yes
  34. Forced                                   : No
  35. Color range                              : Limited
  36. Color primaries                          : BT.709
  37. Audio #1
  38. ID                                       : 1
  39. Format                                   : AC-3
  40. Format/Info                              : Audio Coding 3
  41. Commercial name                          : Dolby Digital
  42. Codec ID                                 : A_AC3
  43. Duration                                 : 1 h 34 min
  44. Bit rate mode                            : Constant
  45. Bit rate                                 : 640 kb/s
  46. Channel(s)                               : 6 channels
  47. Channel layout                           : L R C LFE Ls Rs
  48. Sampling rate                            : 48.0 kHz
  49. Frame rate                               : 31.250 FPS (1536 SPF)
  50. Compression mode                         : Lossy
  51. Stream size                              : 434 MiB (10%)
  52. Title                                    : 粤
  53. Language                                 : Chinese
  54. Service kind                             : Complete Main
  55. Default                                  : Yes
  56. Forced                                   : No
  57. Audio #2
  58. ID                                       : 2
  59. Format                                   : AC-3
  60. Format/Info                              : Audio Coding 3
  61. Commercial name                          : Dolby Digital
  62. Codec ID                                 : A_AC3
  63. Duration                                 : 1 h 34 min
  64. Bit rate mode                            : Constant
  65. Bit rate                                 : 320 kb/s
  66. Channel(s)                               : 6 channels
  67. Channel layout                           : L R C LFE Ls Rs
  68. Sampling rate                            : 48.0 kHz
  69. Frame rate                               : 31.250 FPS (1536 SPF)
  70. Compression mode                         : Lossy
  71. Stream size                              : 217 MiB (5%)
  72. Title                                    : 国
  73. Language                                 : Chinese
  74. Service kind                             : Complete Main
  75. Default                                  : No
  76. Forced                                   : No
  77. Text #1
  78. ID                                       : 4
  79. Format                                   : PGS
  80. Muxing mode                              : zlib
  81. Codec ID                                 : S_HDMV/PGS
  82. Codec ID/Info                            : Picture based subtitle format used on BDs/HD-DVDs
  83. Title                                    : 繁
  84. Language                                 : Chinese
  85. Default                                  : Yes
  86. Forced                                   : No
  87. Text #2
  88. ID                                       : 5
  89. Format                                   : PGS
  90. Muxing mode                              : zlib
  91. Codec ID                                 : S_HDMV/PGS
  92. Codec ID/Info                            : Picture based subtitle format used on BDs/HD-DVDs
  93. Title                                    : 英
  94. Language                                 : English
  95. Default                                  : No
  96. Forced                                   : No
  97. Menu
  98. 00:00:00.000                             : en:Chapter 01
  99. 00:02:44.497                             : en:Chapter 02
  100. 00:06:04.030                             : en:Chapter 03
  101. 00:10:26.500                             : en:Chapter 04
  102. 00:16:48.173                             : en:Chapter 05
  103. 00:20:55.295                             : en:Chapter 06
  104. 00:25:13.053                             : en:Chapter 07
  105. 00:29:59.547                             : en:Chapter 08
  106. 00:34:25.521                             : en:Chapter 09
  107. 00:40:37.893                             : en:Chapter 10
  108. 00:47:20.587                             : en:Chapter 11
  109. 00:52:32.941                             : en:Chapter 12
  110. 00:55:41.129                             : en:Chapter 13
  111. 00:59:01.079                             : en:Chapter 14
  112. 01:02:38.212                             : en:Chapter 15
  113. 01:05:07.737                             : en:Chapter 16
  114. 01:10:01.363                             : en:Chapter 17
  115. 01:13:16.600                             : en:Chapter 18
  116. 01:20:52.180                             : en:Chapter 19
  117. 01:31:04.041                             : en:Chapter 20





此处一般会放置磁力链或种子下载链接,不过此链接需要注册会员才能看到,点击“立即注册”
磁力链下载【下载链接仅对注册会员开放,登陆后可见】
BT9527电影天堂 1、BT9527电影天堂提供的BT文件均来源于互联网抓取,只供网友学习交流、技术提升使用。
2、我们遵守BitTorrent点对点协议原则,任何版权问题请联系原资源发布商,我们不处理任何版权纠纷,谢谢!如有争议请联系邮箱:BT9527#hotmail.com(#换成@)
3、如果您发现某页面或地址有错误,请联系站长邮箱BT9527#hotmail.com(#换成@),我们会尽快处理。您的热心是对BT9527电影天堂最大的支持。
4、本站建议去正规影院观看电影以支持电影行业发展。
最新回复 (0)

你可以在 登录 or 注册 后,对此帖发表评论!

返回
发新帖