盗钥匙的方法[中文字幕].Key.of.Life.2012.BluRay.1080p.x265.10bit-MiniHD 5.26GB

版主小s 20天前 94

✔资源类型:暂未分类   ✔电影年份:2012   ✔电影地区:日本   ✔电影分类:剧情

◎译  名 盗钥匙的方法 / 落KEY人生(台) / 钥匙贼的办法 / 钥匙贼的方法 / 窃匙之盗 / Kagi Dorob? no Method / Key of Life
◎片  名 鍵泥棒のメソッド
◎年  代 2012
◎产  地 日本
◎类  别 剧情 / 喜剧
◎语  言 日语
◎上映日期 2012-06-17(上海国际电影节) / 2012-09-15(日本)
◎IMDb链接 https://www.imdb.com/title/tt2078599/
◎豆瓣评分 8.5/10 (143343人评价)
◎豆瓣链接 https://movie.douban.com/subject/6880497/
◎片  长 128分钟
◎导  演 内田贤治 Kenji Uchida (id:1309342)
◎编  剧 内田贤治 Kenji Uchida (id:1309342)
◎演  员 堺雅人 Masato Sakai (id:1028795)
       香川照之 Teruyuki Kagawa (id:1037221)
       广末凉子 Ryoko Hirosue (id:1098533)
       荒川良良 YosiYosi Arakawa (id:1187780)
       森口瑶子 Y?ko Moriguchi (id:1170136)
       小野武彦 Takehiko Ono (id:1025938)
       三上市朗 Ichiro Mikami (id:1378444)
       宇田高木 Takaki Uda (id:1381153)
       池田成志 Narushi Ikeda (id:1317516)
       本宫泰风 Yasukaze Motomiya (id:1004833)
       李千鹤 chizu lee (id:1375790)
       原金太郎 Kintaro Hara (id:1448064)
       中村无何有 Mukau Nakamura (id:1436850)
       黑田大辅 Daisuke Kuroda (id:1338342)
       田中聪元 Sogen Tanaka (id:1376269)
       室毅 Tsuyoshi Muro (id:1275807)
       大谷亮介 Ry?suke Ohtani (id:1343136)
       柊瑠美 Rumi Hiiragi (id:1023337)
       内田慈 Chika Uchida (id:1340040)
       三村恭代 Takayo Mimura (id:1029160)
       松山爱里 Airi Matsuyama (id:1325905)
       小山田小百合 Sayuri Oyamada  (id:1317561)
       木野花 Hana Kino (id:1015520)
       佐光朗 Akira Sako (id:1296480)
       金胜浩一 Kouichi Kanakatsu (id:1443628)

◎简  介
  小剧场演员樱井武史(堺雅人 饰)奋斗多年始终未见出头天,穷困潦倒,情场失意,绝望至极的他连自杀都不成功。无奈之下,他只得进入大众浴池洗澡,谁知却阴差阳错用一枚香皂滑到了某个陌生男子。男子倒地晕厥,樱井则鬼迷心窍偷走了对方的储物柜钥匙,从此化名近藤,过起了从来不敢企及的富贵人生活。然而令他怎么也想象不到的是,近藤(香川照之 饰)竟是一名名震黑道的冷血杀手。在此之后,樱井不得不接手来自黑道的委托,硬着头皮干起杀人的营生。与此同时,从医院醒来的近藤失去记忆,误以为自己是走投无路的樱井。在偶然结识的美丽女性水岛早苗(广末凉子 饰)的帮助下,他一点一滴重新认识作为演员的自己,苦苦探索前进的方向,在此过程中他和早苗的内心也悄悄发生变化。而当他的记忆恢复那一刹那,三个人的命运也由此纠缠到了一起……                                    
                                本片荣获2012年日本电影旬报十佳影片第八名。

◎获奖情况 (共8项)
  第36届日本电影学院奖 (2013)
  最佳编剧
   └──内田贤治 (id:1309342)
  最佳男主角(提名)
   └──堺雅人 (id:1028795)
  最佳男配角(提名)
   └──香川照之 (id:1037221)
  最佳女配角(提名)
   └──广末凉子 (id:1098533)

  第15届上海国际电影节 (2012)
  金爵奖 最佳影片(提名)
   └──内田贤治 (id:1309342)
  金爵奖 最佳编剧
   └──内田贤治 (id:1309342)

  第37届报知映画赏 (2012)
  最佳影片
   └──内田贤治 (id:1309342)

  第4届豆瓣电影鑫像奖 (2014)
  鑫豆单元 最佳日本电影(提名)

  1. ##### MediaInfo ######
  2. General
  3. Unique ID                                : 249098198998545678061260758733338536024 (0xBB66916C03C0FFB79D64F06FE84D6858)
  4. Complete name                            : Key.of.Life.2012.BluRay.1080p.x265.10bit-MiniHD.mkv
  5. Format                                   : Matroska
  6. Format version                           : Version 4
  7. File size                                : 5.26 GiB
  8. Duration                                 : 2 h 8 min
  9. Overall bit rate                         : 5 862 kb/s
  10. Encoded date                             : UTC 2017-09-04 08:08:59
  11. Writing application                      : mkvmerge v11.0.0 ('Alive') 64bit
  12. Writing library                          : libebml v1.3.4 + libmatroska v1.4.5
  13. Video
  14. ID                                       : 1
  15. Format                                   : HEVC
  16. Format/Info                              : High Efficiency Video Coding
  17. Codec ID                                 : V_MPEGH/ISO/HEVC
  18. Duration                                 : 2 h 8 min
  19. Bit rate                                 : 5 297 kb/s
  20. Width                                    : 1 920 pixels
  21. Height                                   : 1 038 pixels
  22. Display aspect ratio                     : 1.85:1
  23. Frame rate mode                          : Constant
  24. Frame rate                               : 23.976 (24000/1001/53354) FPS
  25. Bits/(Pixel*Frame)                       : 0.111
  26. Stream size                              : 4.75 GiB (90%)
  27. Default                                  : Yes
  28. Forced                                   : No
  29. Audio
  30. ID                                       : 2
  31. Format                                   : AC-3
  32. Format/Info                              : Audio Coding 3
  33. Commercial name                          : Dolby Digital
  34. Codec ID                                 : A_AC3
  35. Duration                                 : 2 h 8 min
  36. Bit rate mode                            : Constant
  37. Bit rate                                 : 448 kb/s
  38. Channel(s)                               : 6 channels
  39. Channel layout                           : L R C LFE Ls Rs
  40. Sampling rate                            : 48.0 kHz
  41. Frame rate                               : 31.250 FPS (1536 SPF)
  42. Compression mode                         : Lossy
  43. Stream size                              : 411 MiB (8%)
  44. Language                                 : Japanese
  45. Service kind                             : Complete Main
  46. Default                                  : Yes
  47. Forced                                   : No
  48. Text #1
  49. ID                                       : 3
  50. Format                                   : PGS
  51. Muxing mode                              : zlib
  52. Codec ID                                 : S_HDMV/PGS
  53. Codec ID/Info                            : Picture based subtitle format used on BDs/HD-DVDs
  54. Language                                 : Chinese
  55. Default                                  : Yes
  56. Forced                                   : No
  57. Text #2
  58. ID                                       : 4
  59. Format                                   : PGS
  60. Muxing mode                              : zlib
  61. Codec ID                                 : S_HDMV/PGS
  62. Codec ID/Info                            : Picture based subtitle format used on BDs/HD-DVDs
  63. Language                                 : Chinese
  64. Default                                  : No
  65. Forced                                   : No
  66. Menu
  67. 00:00:00.000                             : en:Chapter 01
  68. 00:13:39.985                             : en:Chapter 02
  69. 00:25:21.811                             : en:Chapter 03
  70. 00:37:41.884                             : en:Chapter 04
  71. 00:45:26.598                             : en:Chapter 05
  72. 00:56:41.064                             : en:Chapter 06
  73. 01:10:36.941                             : en:Chapter 07
  74. 01:21:14.953                             : en:Chapter 08
  75. 01:30:05.274                             : en:Chapter 09
  76. 01:40:36.780                             : en:Chapter 10
  77. 01:51:07.077                             : en:Chapter 11
  78. 02:02:54.116                             : en:Chapter 12
  79. 02:08:19.691                             : en:Chapter 13





此处一般会放置磁力链或种子下载链接,不过此链接需要注册会员才能看到,点击“立即注册”
磁力链下载【下载链接仅对注册会员开放,登陆后可见】
BT9527电影天堂 1、BT9527电影天堂提供的BT文件均来源于互联网抓取,只供网友学习交流、技术提升使用。
2、我们遵守BitTorrent点对点协议原则,任何版权问题请联系原资源发布商,我们不处理任何版权纠纷,谢谢!如有争议请联系邮箱:BT9527#hotmail.com(#换成@)
3、如果您发现某页面或地址有错误,请联系站长邮箱BT9527#hotmail.com(#换成@),我们会尽快处理。您的热心是对BT9527电影天堂最大的支持。
4、本站建议去正规影院观看电影以支持电影行业发展。
最新回复 (0)

你可以在 登录 or 注册 后,对此帖发表评论!

返回
发新帖