王牌保镖2[简繁英字幕].Hitman's.Wife's.Bodyguard.2021.Extended.Cut.2160p.HDR.UHD.BluRay.TrueHD.7.1.Atmos.x265-10bit-ENTHD 16.67GB

版主小s 3月前 129

✔资源类型:BD-4K   ✔电影年份:2021   ✔电影地区:欧美   ✔电影分类:喜剧

◎译  名 王牌保镖2 / 杀手妻子的保镖 / 保镖救杀手2(港) / The Hitman's Bodyguard 2
◎片  名 The Hitman's Wife's Bodyguard
◎年  代 2021
◎产  地 美国 / 英国
◎类  别 喜剧 / 动作 / 犯罪
◎语  言 英语
◎上映日期 2021-06-16(美国)
◎IMDb链接 https://www.imdb.com/title/tt8385148/
◎豆瓣评分 6.3/10 (24280人评价)
◎豆瓣链接 https://movie.douban.com/subject/30216729/
◎片  长 116分钟
◎导  演 帕特里克·休斯 Patrick Hughes (id:1328352)
◎编  剧 汤姆·奥康纳 Tom O'Connor (id:1335447)
       布兰登·墨菲 Brandon Murphy (id:1458667)
       菲利普·墨菲 Phillip Murphy (id:1458668)
◎演  员 瑞安·雷诺兹 Ryan Reynolds (id:1053623)
       塞缪尔·杰克逊 Samuel L. Jackson (id:1054408)
       萨尔玛·海耶克 Salma Hayek (id:1047986)
       弗兰克·格里罗 Frank Grillo (id:1100321)
       理查德·E·格兰特 Richard E. Grant (id:1048188)
       安东尼奥·班德拉斯 Antonio Banderas (id:1022582)
       摩根·弗里曼 Morgan Freeman (id:1054534)
       斯图尔特·亚历山大 Stewart Alexander (id:1458669)
       早乙女津和雪 Tsuwayuki Saotome (id:1458671)
       丽贝卡·弗朗特 Rebecca Front (id:1010702)
       诺杰·赫拉尔 Noortje Herlaar (id:1273893)
       迈克尔·戈尔 Michael Gor (id:1458670)
       乔治·格伦 Georgie Glen (id:1414886)
       巴里·阿茨玛 Barry Atsma (id:1014500)
       蒂内·朱斯特拉 Tine Joustra (id:1458672)
       加里·奥德曼 Gary Oldman (id:1010507)
       玛丽安娜·维基尔斯卡 Mariana Vekilska (id:1458673)
       布莱恩·卡斯佩 Brian Caspe (id:1185866)
       丹柯·约尔丹诺夫 Danko Jordanov (id:1190569)
       西蒙·安德鲁 Simón Andreu (id:1058576)
       塞尔吉奥·托里科 Sergio Torrico (id:1368363)
       布莱克·瑞特森 Blake Ritson (id:1274371)
       汤姆·霍珀 Tom Hopper (id:1315896)
       加布里埃拉·赖特 Gabriella Wright (id:1352456)
       卡罗琳·古多尔 Caroline Goodall (id:1041165)
       爱丽丝·麦克米兰 Alice McMillan (id:1392191)
       伊万·朱里奇 Ivan Djuricic (id:1238458)
       米尔托斯·耶罗勒曼 Miltos Yerolemou (id:1434507)
       帕特里克·休斯 Patrick Hughes (id:1328352)
       德拉甘·米恰诺维奇 Dragan Mi?anovi? (id:1124740)
       托米·梅 Tomi May (id:1361731)
       乔纳斯·塔金顿 Jonas Talkington (id:1213443)
       小恩佐·斯奎利诺 Enzo Squillino Jr. (id:1153606)
       吉欧里奥·贝鲁蒂 Giulio Berruti (id:1214265)
       鲁道夫·科萨托 Rodolfo Corsato (id:1281312)
       卡蒙提普·克里希·阿什顿 Kamontip Krissy Ashton (id:1412747)
       贝卡·宝陵 Bekka Bowling (id:1412748)
       贝恩·科拉科 Bern Colla?o (id:1394212)
       内森·库珀 Nathan Cooper (id:1383903)
       罗杰·金 Roger King (id:1396422)
       阿德南·昆迪 Adnan Kundi (id:1458085)
       马雷克·里奇滕博格 Marek Lichtenberg (id:1449365)
       希滕·珀泰尔 Hiten Patel (id:1392995)
       佩特拉·武凯利奇 Petra Vukelic (id:1251269)
       哈里·陶乐西 Harry Taurasi (id:1452066)
       阿马尔·布克维奇 Amar Bukvic (id:1194514)
       Csilla Barath-Bastaic Csilla Barath-Bastaic (id:1200086)
       James Maclurcan James Maclurcan (id:1253936)
       克里斯蒂娜·坎贝尔 Christa Campbell (id:1036612)
       博兹·大卫逊 Boaz Davidson (id:1040974)
       瓦伦丁·迪米特洛夫 Valentin Dimitrov (id:1194951)
       艾威·勒纳 Avi Lerner (id:1027972)
       海蒂·乔·马克尔 Heidi Jo Markel (id:1014510)
       艾特利·奥瓦逊 Atli ?rvarsson (id:1010033)
       特里·斯塔塞 Terry Stacey (id:1298219)
       斯蒂芬妮·科里  Stephanie Collie (id:1465318)
       妮科尔·亨布拉 Nicholle Hembra (id:1434456)

◎简  介
  这对世上最要命的混搭-——保镖迈克尔·布莱斯和杀手大流士·金凯,再次执行一项要命任务。                                    
                                大流士反复无常更胜以往的妻子——臭名昭著的国际诈骗家索尼娅·金凯迫使布莱斯出山。                                    
                                布莱斯被这俩最危险的保护对象逼得走投无路,三人在一个全球级的阴谋中陷入困境,很快还发现他们是一个大疯子复仇欧洲的唯一障碍。                                    
                                摩根·弗里曼也加入了这场有趣而又致命的乱局,他饰演的是——嗯,不得不看。
  1. ##### MediaInfo ######
  2. General
  3. Unique ID                                : 324542622270929227891322421354133445800 (0xF428A2AC99611ECDBFF57B64DB0BDCA8)
  4. Complete name                            : Hitman's.Wife's.Bodyguard.2021.2160p.HDR.UHD.BluRay.TrueHD.7.1.Atmos.x265-10bit-ENTHD.mkv
  5. Format                                   : Matroska
  6. Format version                           : Version 4
  7. File size                                : 16.7 GiB
  8. Duration                                 : 1 h 57 min
  9. Overall bit rate mode                    : Variable
  10. Overall bit rate                         : 20.4 Mb/s
  11. Movie name                               : Hitman's Wife's Bodyguard 2021 2160p HDR UHD BluRay TrueHD 7.1 Atmos x265-10bit-HDS
  12. Encoded date                             : UTC 2022-06-10 04:45:30
  13. Writing application                      : mkvmerge v67.0.0 ('Under Stars') 64-bit
  14. Writing library                          : libebml v1.4.2 + libmatroska v1.6.4
  15. Video
  16. ID                                       : 1
  17. Format                                   : HEVC
  18. Format/Info                              : High Efficiency Video Coding
  19. Format profile                           : Main 10@L5.1@High
  20. HDR format                               : SMPTE ST 2086, HDR10 compatible
  21. Codec ID                                 : V_MPEGH/ISO/HEVC
  22. Duration                                 : 1 h 57 min
  23. Bit rate                                 : 17.2 Mb/s
  24. Width                                    : 3 840 pixels
  25. Height                                   : 1 600 pixels
  26. Display aspect ratio                     : 2.40:1
  27. Frame rate mode                          : Constant
  28. Frame rate                               : 23.976 (24000/1001/53354) FPS
  29. Color space                              : YUV
  30. Chroma subsampling                       : 4:2:0
  31. Bit depth                                : 10 bits
  32. Bits/(Pixel*Frame)                       : 0.117
  33. Stream size                              : 14.1 GiB (84%)
  34. Title                                    : @HDSky
  35. Writing library                          : x265 - H.265/HEVC codec
  36. Default                                  : Yes
  37. Forced                                   : No
  38. Color range                              : Limited
  39. Color primaries                          : BT.2020
  40. Transfer characteristics                 : PQ
  41. Matrix coefficients                      : BT.2020 non-constant
  42. Mastering display color primaries        : Display P3
  43. Mastering display luminance              : min: 0.0050 cd/m2, max: 1000 cd/m2
  44. Maximum Content Light Level              : 1000 cd/m2
  45. Maximum Frame-Average Light Level        : 711 cd/m2
  46. Audio #1
  47. ID                                       : 2
  48. Format                                   : MLP FBA
  49. Format/Info                              : Meridian Lossless Packing FBA
  50. Commercial name                          : Dolby TrueHD
  51. Codec ID                                 : A_TRUEHD
  52. Duration                                 : 1 h 56 min
  53. Bit rate mode                            : Variable
  54. Bit rate                                 : 2 317 kb/s
  55. Maximum bit rate                         : 4 011 kb/s
  56. Channel(s)                               : 8 channels
  57. Channel layout                           : L R C LFE Ls Rs Lb Rb
  58. Sampling rate                            : 48.0 kHz
  59. Frame rate                               : 1 200.000 FPS (40 SPF)
  60. Compression mode                         : Lossless
  61. Stream size                              : 1.89 GiB (11%)
  62. Title                                    : English
  63. Language                                 : English
  64. Default                                  : Yes
  65. Forced                                   : No
  66. Audio #2
  67. ID                                       : 3
  68. Format                                   : AC-3
  69. Format/Info                              : Audio Coding 3
  70. Commercial name                          : Dolby Digital
  71. Codec ID                                 : A_AC3
  72. Duration                                 : 1 h 56 min
  73. Bit rate mode                            : Constant
  74. Bit rate                                 : 640 kb/s
  75. Channel(s)                               : 6 channels
  76. Channel layout                           : L R C LFE Ls Rs
  77. Sampling rate                            : 48.0 kHz
  78. Frame rate                               : 31.250 FPS (1536 SPF)
  79. Compression mode                         : Lossy
  80. Stream size                              : 534 MiB (3%)
  81. Service kind                             : Complete Main
  82. Default                                  : Yes
  83. Forced                                   : No
  84. Text #1
  85. ID                                       : 4
  86. Format                                   : PGS
  87. Muxing mode                              : zlib
  88. Codec ID                                 : S_HDMV/PGS
  89. Codec ID/Info                            : Picture based subtitle format used on BDs/HD-DVDs
  90. Duration                                 : 1 h 49 min
  91. Bit rate                                 : 53.6 kb/s
  92. Count of elements                        : 2514
  93. Stream size                              : 42.0 MiB (0%)
  94. Title                                    : ENG
  95. Language                                 : English
  96. Default                                  : Yes
  97. Forced                                   : No
  98. Text #2
  99. ID                                       : 5
  100. Format                                   : PGS
  101. Muxing mode                              : zlib
  102. Codec ID                                 : S_HDMV/PGS
  103. Codec ID/Info                            : Picture based subtitle format used on BDs/HD-DVDs
  104. Duration                                 : 1 h 49 min
  105. Bit rate                                 : 47.9 kb/s
  106. Count of elements                        : 3982
  107. Stream size                              : 37.5 MiB (0%)
  108. Title                                    : CHS
  109. Language                                 : Chinese
  110. Default                                  : Yes
  111. Forced                                   : No
  112. Text #3
  113. ID                                       : 6
  114. Format                                   : PGS
  115. Muxing mode                              : zlib
  116. Codec ID                                 : S_HDMV/PGS
  117. Codec ID/Info                            : Picture based subtitle format used on BDs/HD-DVDs
  118. Duration                                 : 1 h 49 min
  119. Bit rate                                 : 49.5 kb/s
  120. Count of elements                        : 3982
  121. Stream size                              : 38.8 MiB (0%)
  122. Title                                    : CHT
  123. Language                                 : Chinese
  124. Default                                  : Yes
  125. Forced                                   : No
  126. Text #4
  127. ID                                       : 7
  128. Format                                   : PGS
  129. Muxing mode                              : zlib
  130. Codec ID                                 : S_HDMV/PGS
  131. Codec ID/Info                            : Picture based subtitle format used on BDs/HD-DVDs
  132. Duration                                 : 1 h 49 min
  133. Bit rate                                 : 112 kb/s
  134. Count of elements                        : 3964
  135. Stream size                              : 87.3 MiB (1%)
  136. Title                                    : CHS&ENG
  137. Language                                 : Chinese
  138. Default                                  : Yes
  139. Forced                                   : No
  140. Text #5
  141. ID                                       : 8
  142. Format                                   : PGS
  143. Muxing mode                              : zlib
  144. Codec ID                                 : S_HDMV/PGS
  145. Codec ID/Info                            : Picture based subtitle format used on BDs/HD-DVDs
  146. Duration                                 : 1 h 49 min
  147. Bit rate                                 : 114 kb/s
  148. Count of elements                        : 3964
  149. Stream size                              : 89.1 MiB (1%)
  150. Title                                    : CHT&ENG
  151. Language                                 : Chinese
  152. Default                                  : Yes
  153. Forced                                   : No
  154. Menu
  155. 00:00:00.000                             : en:第 01 章
  156. 00:09:14.095                             : en:第 02 章
  157. 00:19:37.092                             : en:第 03 章
  158. 00:25:43.208                             : en:第 04 章
  159. 00:35:08.940                             : en:第 05 章
  160. 00:44:45.474                             : en:第 06 章
  161. 00:52:22.806                             : en:第 07 章
  162. 01:00:23.161                             : en:第 08 章
  163. 01:10:33.311                             : en:第 09 章
  164. 01:20:08.511                             : en:第 10 章
  165. 01:29:04.505                             : en:第 11 章
  166. 01:41:08.979                             : en:第 12 章





此处一般会放置磁力链或种子下载链接,不过此链接需要注册会员才能看到,点击“立即注册”
磁力链下载【下载链接仅对注册会员开放,登陆后可见】
BT9527电影天堂 1、BT9527电影天堂提供的BT文件均来源于互联网抓取,只供网友学习交流、技术提升使用。
2、我们遵守BitTorrent点对点协议原则,任何版权问题请联系原资源发布商,我们不处理任何版权纠纷,谢谢!如有争议请联系邮箱:BT9527#hotmail.com(#换成@)
3、如果您发现某页面或地址有错误,请联系站长邮箱BT9527#hotmail.com(#换成@),我们会尽快处理。您的热心是对BT9527电影天堂最大的支持。
4、本站建议去正规影院观看电影以支持电影行业发展。
最新回复 (0)

你可以在 登录 or 注册 后,对此帖发表评论!

返回
发新帖