皇家师姐[国粤多音轨/简繁英字幕].In.The.Line.of.Duty.2.Yes.Madam.1985.BluRay.1080p.x265.10bit-MiniHD 4.99GB

版主小s 3月前 205

✔资源类型:暂未分类   ✔电影年份:更 早   ✔电影地区:香港   ✔电影分类:动作

◎译  名 皇家师姐 / Yes, Madam! / In the Line of Duty 2 / Police Assassins
◎片  名 皇家師姐
◎年  代 1985
◎产  地 中国香港
◎类  别 动作
◎语  言 粤语
◎上映日期 1985-11-30
◎IMDb链接 https://www.imdb.com/title/tt0093229/
◎豆瓣评分 6.6/10 (2249人评价)
◎豆瓣链接 https://movie.douban.com/subject/1294467/
◎片  长 Hong Kong: 93 分钟
◎导  演 元奎 Corey Yuen (id:1289150)
◎编  剧 黄炳耀 Barry Wong (id:1014964)
◎演  员 杨紫琼 Michelle Yeoh (id:1022664)
       罗芙洛 Cynthia Rothrock (id:1032178)
       岑建勋 John Sham (id:1274474)
       徐克 Hark Tsui (id:1007152)
       洪金宝 Sammo Hung Kam-Bo (id:1055887)
       吴耀汉 Richard Ng (id:1037408)
       午马 Wu Ma (id:1054282)
       何柏光 Pak-Kwong Ho (id:1350540)
       钟发 Fat Chung (id:1314531)
       泰山 San Tai (id:1423731)
       彭润祥 Yun-chiang Peng (id:1431212)
       李擎柱 King Chu Lee (id:1330748)
       林富伟 Fu-wai Lam (id:1433957)
       郭军城 Kwan-Shing Kwok (id:1434911)
       田俊 James Tien Chun (id:1352930)
       马玉成 Yuk-Sing Ma (id:1290582)
       陈果 Fruit Chan (id:1000726)
       孟海 Hoi Mang (id:1286778)
       林威 Wai Lam (id:1289306)
       楼南光 Billy Lau (id:1289501)
       沈威 Wai Shum (id:1297537)
       太保 Po Tai (id:1312993)
       江龙 Long Jiang (id:1319652)
       潘迪生 Dickson Poon (id:1294716)
       戴乐民 Romeo Díaz (id:1282921)
       黄仲标 Bill Wong (id:1301175)
       奚仲文 Chung-Man Hai (id:1275027)
       陈玉明 Yuk-ming Chan (id:1433384)
       黎继明 Kai Ming Lai (id:1315601)

◎简  介
  督察吴落茜(杨紫琼 饰)身手敏捷、嫉恶如仇,某日在赴约时惊见身为伦敦方面调查员的好友身死,原来该调查员因掌握了田氏集团假合约的胶片而被杀。当日,胶片被闯入宾馆的小偷散利痛(孟海 饰)、止立消(岑建勋 饰)无意中盗走,二人将带有胶片的护照交与师兄弟脱苦海(徐克 饰)加工贩卖。同时,伦敦方面派出女警麦瑞(罗芙洛 饰)赴港调查调查员遇害一案。脱苦海师兄弟三人为了摆脱自己调查员遇害一案的嫌疑,选择向警方告密,结果被假护照买家寻仇。而一直在暗中计划夺回胶片的田氏集团,亦派出杀手追踪脱苦海师兄弟的下落,吴落茜与麦瑞的女警组合只得与脱苦海等人以及田氏集团斗智斗勇……

◎获奖情况 (共3项)
  第5届香港电影金像奖 (1986)
  最佳男配角
   └──孟海 (id:1286778)
  最佳新演员(提名)
   └──杨紫琼 (id:1022664)
  最佳动作设计(提名)

  1. ##### MediaInfo ######
  2. General
  3. Unique ID                                : 216031603921156967156464862058515485482 (0xA2862C6A026BACEAABF91FE1BEAF532A)
  4. Complete name                            : In.The.Line.of.Duty.2.Yes.Madam.1985.BluRay.1080p.x265.10bit-MiniHD.mkv
  5. Format                                   : Matroska
  6. Format version                           : Version 4
  7. File size                                : 4.99 GiB
  8. Duration                                 : 1 h 33 min
  9. Overall bit rate                         : 7 650 kb/s
  10. Encoded date                             : UTC 2017-11-22 10:43:49
  11. Writing application                      : mkvmerge v16.0.0 ('Protest') 32-bit
  12. Writing library                          : libebml v1.3.5 + libmatroska v1.4.8
  13. Video
  14. ID                                       : 1
  15. Format                                   : HEVC
  16. Format/Info                              : High Efficiency Video Coding
  17. Format profile                           : Main 10@L4@Main
  18. Codec ID                                 : V_MPEGH/ISO/HEVC
  19. Duration                                 : 1 h 33 min
  20. Bit rate                                 : 6 217 kb/s
  21. Width                                    : 1 920 pixels
  22. Height                                   : 1 036 pixels
  23. Display aspect ratio                     : 1.85:1
  24. Frame rate mode                          : Constant
  25. Frame rate                               : 23.976 (24000/1001/53354) FPS
  26. Color space                              : YUV
  27. Chroma subsampling                       : 4:2:0
  28. Bit depth                                : 10 bits
  29. Bits/(Pixel*Frame)                       : 0.130
  30. Stream size                              : 4.05 GiB (81%)
  31. Writing library                          : x265 2.5+2-18fa144d453e:[Windows][GCC 7.1.0][64 bit] 10bit
  32. Encoding settings                        : cpuid=533541173503 / frame-threads=3 / numa-pools=8 / wpp / no-pmode / no-pme / no-psnr / no-ssim / log-level=2 / input-csp=1 / input-res=1920x1036 / interlace=0 / total-frames=134266 / level-idc=0 / high-tier=1 / uhd-bd=0 / ref=5 / no-allow-non-conformance / no-repeat-headers / annexb / no-aud / no-hrd / info / hash=0 / no-temporal-layers / no-open-gop / min-keyint=1 / keyint=360 / bframes=8 / b-adapt=2 / b-pyramid / bframe-bias=0 / rc-lookahead=40 / lookahead-slices=4 / NTMzNTQ=uuDQuD2mJt9fsCf / scenecut=40 / no-intra-refresh / ctu=32 / min-cu-size=8 / rect / no-amp / max-tu-size=16 / tu-inter-depth=2 / tu-intra-depth=2 / limit-tu=4 / rdoq-level=1 / dynamic-rd=0.00 / ssim-rd / signhide / no-tskip / nr-intra=0 / nr-inter=0 / no-constrained-intra / no-strong-intra-smoothing / max-merge=3 / limit-refs=2 / limit-modes / me=3 / subme=5 / merange=25 / temporal-mvp / weightp / weightb / no-analyze-src-pics / deblock=-1:-1 / no-sao / no-sao-non-deblock / rd=4 / no-early-skip / rskip / no-fast-intra / no-tskip-fast / no-cu-lossless / b-intra / rdpenalty=1 / psy-rd=0.00 / psy-rdoq=3.00 / no-rd-refine / analysis-reuse-mode=0 / no-lossless / cbqpoffs=-2 / crqpoffs=-2 / rc=crf / crf=20.0 / qcomp=0.70 / qpstep=4 / stats-write=0 / stats-read=0 / ipratio=1.40 / pbratio=1.30 / aq-mode=2 / aq-strength=0.80 / cutree / zone-count=0 / no-strict-cbr / qg-size=16 / no-rc-grain / qpmax=69 / qpmin=0 / no-const-vbv / sar=1 / overscan=0 / videoformat=5 / range=0 / colorprim=1 / transfer=2 / colormatrix=2 / chromaloc=0 / display-window=0 / max-cll=0,0 / min-luma=0 / max-luma=1023 / log2-max-poc-lsb=8 / vui-timing-info / vui-hrd-info / slices=1 / opt-qp-pps / opt-ref-list-length-pps / no-multi-pass-opt-rps / scenecut-bias=0.05 / no-opt-cu-delta-qp / no-aq-motion / no-hdr / no-hdr-opt / no-dhdr10-opt / analysis-reuse-level=5 / scale-factor=0 / refine-intra=0 / refine-inter=0 / refine-mv=0 / no-limit-sao / ctu-info=0
  33. Default                                  : Yes
  34. Forced                                   : No
  35. Color range                              : Limited
  36. Color primaries                          : BT.709
  37. Audio #1
  38. ID                                       : 2
  39. Format                                   : AC-3
  40. Format/Info                              : Audio Coding 3
  41. Commercial name                          : Dolby Digital
  42. Codec ID                                 : A_AC3
  43. Duration                                 : 1 h 33 min
  44. Bit rate mode                            : Constant
  45. Bit rate                                 : 640 kb/s
  46. Channel(s)                               : 6 channels
  47. Channel layout                           : L R C LFE Ls Rs
  48. Sampling rate                            : 48.0 kHz
  49. Frame rate                               : 31.250 FPS (1536 SPF)
  50. Compression mode                         : Lossy
  51. Stream size                              : 427 MiB (8%)
  52. Title                                    : 粤语
  53. Service kind                             : Complete Main
  54. Default                                  : Yes
  55. Forced                                   : No
  56. Audio #2
  57. ID                                       : 3
  58. Format                                   : AC-3
  59. Format/Info                              : Audio Coding 3
  60. Commercial name                          : Dolby Digital
  61. Codec ID                                 : A_AC3
  62. Duration                                 : 1 h 33 min
  63. Bit rate mode                            : Constant
  64. Bit rate                                 : 640 kb/s
  65. Channel(s)                               : 6 channels
  66. Channel layout                           : L R C LFE Ls Rs
  67. Sampling rate                            : 48.0 kHz
  68. Frame rate                               : 31.250 FPS (1536 SPF)
  69. Compression mode                         : Lossy
  70. Stream size                              : 427 MiB (8%)
  71. Title                                    : 国语
  72. Service kind                             : Complete Main
  73. Default                                  : No
  74. Forced                                   : No
  75. Text #1
  76. ID                                       : 4
  77. Format                                   : PGS
  78. Muxing mode                              : zlib
  79. Codec ID                                 : S_HDMV/PGS
  80. Codec ID/Info                            : Picture based subtitle format used on BDs/HD-DVDs
  81. Title                                    : 繁体
  82. Language                                 : Chinese
  83. Default                                  : No
  84. Forced                                   : No
  85. Text #2
  86. ID                                       : 5
  87. Format                                   : PGS
  88. Muxing mode                              : zlib
  89. Codec ID                                 : S_HDMV/PGS
  90. Codec ID/Info                            : Picture based subtitle format used on BDs/HD-DVDs
  91. Title                                    : 英语
  92. Language                                 : English
  93. Default                                  : No
  94. Forced                                   : No
  95. Text #3
  96. ID                                       : 6
  97. Format                                   : PGS
  98. Muxing mode                              : zlib
  99. Codec ID                                 : S_HDMV/PGS
  100. Codec ID/Info                            : Picture based subtitle format used on BDs/HD-DVDs
  101. Title                                    : 简体
  102. Language                                 : Chinese
  103. Default                                  : Yes
  104. Forced                                   : No
  105. Text #4
  106. ID                                       : 7
  107. Format                                   : PGS
  108. Muxing mode                              : zlib
  109. Codec ID                                 : S_HDMV/PGS
  110. Codec ID/Info                            : Picture based subtitle format used on BDs/HD-DVDs
  111. Title                                    : 英语
  112. Language                                 : English
  113. Default                                  : No
  114. Forced                                   : No
  115. Menu
  116. 00:00:00.000                             : en:Chapter 01
  117. 00:04:02.784                             : en:Chapter 02
  118. 00:09:26.357                             : en:Chapter 03
  119. 00:13:22.426                             : en:Chapter 04
  120. 00:15:57.915                             : en:Chapter 05
  121. 00:20:00.866                             : en:Chapter 06
  122. 00:23:36.039                             : en:Chapter 07
  123. 00:29:36.107                             : en:Chapter 08
  124. 00:32:41.584                             : en:Chapter 09
  125. 00:35:51.149                             : en:Chapter 10
  126. 00:42:01.894                             : en:Chapter 11
  127. 00:44:50.896                             : en:Chapter 12
  128. 00:48:40.167                             : en:Chapter 13
  129. 00:52:54.254                             : en:Chapter 14
  130. 00:57:09.217                             : en:Chapter 15
  131. 01:04:32.827                             : en:Chapter 16
  132. 01:11:29.702                             : en:Chapter 17
  133. 01:15:32.486                             : en:Chapter 18
  134. 01:24:24.184                             : en:Chapter 19
  135. 01:29:13.681                             : en:Chapter 20





此处一般会放置磁力链或种子下载链接,不过此链接需要注册会员才能看到,点击“立即注册”
磁力链下载【下载链接仅对注册会员开放,登陆后可见】
BT9527电影天堂 1、BT9527电影天堂提供的BT文件均来源于互联网抓取,只供网友学习交流、技术提升使用。
2、我们遵守BitTorrent点对点协议原则,任何版权问题请联系原资源发布商,我们不处理任何版权纠纷,谢谢!如有争议请联系邮箱:BT9527#hotmail.com(#换成@)
3、如果您发现某页面或地址有错误,请联系站长邮箱BT9527#hotmail.com(#换成@),我们会尽快处理。您的热心是对BT9527电影天堂最大的支持。
4、本站建议去正规影院观看电影以支持电影行业发展。
最新回复 (0)

你可以在 登录 or 注册 后,对此帖发表评论!

返回
发新帖