用心棒[中英字幕].Yojimbo.1961.BluRay.1080p.x265.10bit-MiniHD 8.41GB

版主小s 3月前 323

✔资源类型:暂未分类   ✔电影年份:更 早   ✔电影地区:日本   ✔电影分类:剧情

◎译  名 用心棒 / 大镖客 / 保镖 / The Bodyguard / Yojimbo
◎年  代 1961
◎产  地 日本
◎类  别 剧情 / 动作 / 惊悚
◎语  言 日语
◎上映日期 1961-04-25(日本)
◎IMDb链接 https://www.imdb.com/title/tt0055630/
◎豆瓣评分 9.0/10 (43216人评价)
◎豆瓣链接 https://movie.douban.com/subject/1292515/
◎片  长 110分钟
◎导  演 黑泽明 Akira Kurosawa (id:1054529)
◎编  剧 黑泽明 Akira Kurosawa (id:1054529)
       菊岛隆三 Ry?z? Kikushima (id:1288522)
◎演  员 三船敏郎 Toshir? Mifune (id:1056027)
       仲代达矢 Tatsuya Nakadai (id:1036950)
       司叶子 Y?ko Tsukasa (id:1025579)
       山田五十铃 Isuzu Yamada (id:1008122)
       加东大介 Daisuke Kat? (id:1008093)
       河津清三郎 Seizabur? Kawazu (id:1051693)
       志村乔 Takashi Shimura (id:1032411)
       太刀川宽 Hiroshi Tachikawa (id:1359994)
       夏木阳介 Yosuke Natsuki (id:1033734)
       东野英治郎 Eijir? T?no (id:1159772)
       藤原釜足 Kamatari Fujiwara (id:1016877)
       泽村伊纪雄 Ikio Sawamura (id:1051961)
       渡边笃 Atsushi Watanabe (id:1195267)
       藤田进 Susumu Fujita (id:1016957)
       山茶花究 Ky? Sazanka (id:1139620)
       西村晃 K? Nishimura (id:1008337)
       加藤武 Takeshi Kat? (id:1019752)
       中谷一郎 Ichir? Nakatani (id:1097887)
       堺左千夫 Sachio Sakai (id:1008508)
       谷晃 Akira Tani (id:1030335)
       土屋嘉男 Yoshio Tsuchiya (id:1048479)
       清水元 Gen Shimizu (id:1017176)
       佐田丰 Yutaka Sada (id:1003718)
       大友伸 Shin ?tomo (id:1135861)
       广濑正一 Sh?ichi Hirose (id:1094252)
       天本英世 Eisei Amamoto (id:1016944)
       大木正司 Sh?ji ?ki (id:1136593)
       大村千吉 Senkichi ?mura (id:1137188)
       本间文子 Noriko Honma (id:1037962)
       桐野洋雄 Nadao Kirino (id:1039040)
       大友纯 Jun ?tomo (id:1349722)
       高木新平 Shinpei Takagi (id:1043413)
       小川安三 Yasuz? Ogawa (id:1127592)
       熊谷卓三 Takuz? Kumagai (id:1113834)
       杰瑞·藤尾 Jerry Fujio (id:1085421)
       中岛春雄 Haruo Nakajima (id:1014894)
       黑泽明 Akira Kurosawa (id:1054529)
       菊岛隆三 Ry?z? Kikushima (id:1288522)
       佐藤胜 Masaru Sat? (id:1054483)
       宫川一夫 Kazuo Miyagawa (id:1033826)
       黑泽明 Akira Kurosawa (id:1054529)
       出目昌伸 Masanobu Deme (id:1282217)
       森谷司郎 Shir? Moritani (id:1133112)

◎简  介
  外表落魄邋遢的浪人武士三十郎(三船敏郎 饰)来到一个小镇,清兵卫(河津清三郎 饰)和新田丑寅(山茶花究 饰)两家恶霸在那里为争夺地盘,招兵买马经常争斗,弄得民不聊生。三十郎决定从中设计,引诱双方雇佣自己,再加入不同方造成两边拼斗,由此坐收渔利,消灭对方。 但随着丑寅弟弟卯之助(仲代达矢 饰)的加入,情况又发生了不同,他手里握有短枪,占得优势,清兵卫的势力被打败,三十郎甚至也受伤不轻。但是决战在所难免,椿三十郎独对丑寅、亥之吉等众人,身处劣势的他如何能剿灭对方呢?

◎获奖情况 (共3项)
  第34届奥斯卡金像奖 (1962)
  黑白片最佳服装设计(提名)
   └──村木与四郎 (id:1025955)

  第22届威尼斯电影节 (1961)
  主竞赛单元 金狮奖 (提名)
   └──黑泽明 (id:1054529)
  沃尔皮杯 最佳男演员
   └──三船敏郎 (id:1056027)

  1. ##### MediaInfo ######
  2. General
  3. Unique ID                                : 222701875866560654721752338750603380498 (0xA78AD2363F89F92AB3F2D75879DDC712)
  4. Complete name                            : Yojimbo.1961.BluRay.1080p.x265.10bit-MiniHD.mkv
  5. Format                                   : Matroska
  6. Format version                           : Version 4
  7. File size                                : 8.40 GiB
  8. Duration                                 : 1 h 50 min
  9. Overall bit rate                         : 10.9 Mb/s
  10. Encoded date                             : UTC 2017-07-06 11:23:34
  11. Writing application                      : mkvmerge v11.0.0 ('Alive') 64bit
  12. Writing library                          : libebml v1.3.4 + libmatroska v1.4.5
  13. Video
  14. ID                                       : 1
  15. Format                                   : HEVC
  16. Format/Info                              : High Efficiency Video Coding
  17. Codec ID                                 : V_MPEGH/ISO/HEVC
  18. Duration                                 : 1 h 50 min
  19. Bit rate                                 : 9 996 kb/s
  20. Width                                    : 1 920 pixels
  21. Height                                   : 816 pixels
  22. Display aspect ratio                     : 2.35:1
  23. Frame rate mode                          : Constant
  24. Frame rate                               : 23.976 (24000/1001/53354) FPS
  25. Bits/(Pixel*Frame)                       : 0.266
  26. Stream size                              : 7.74 GiB (92%)
  27. Default                                  : Yes
  28. Forced                                   : No
  29. Audio
  30. ID                                       : 2
  31. Format                                   : AC-3
  32. Format/Info                              : Audio Coding 3
  33. Commercial name                          : Dolby Digital
  34. Codec ID                                 : A_AC3
  35. Duration                                 : 1 h 50 min
  36. Bit rate mode                            : Constant
  37. Bit rate                                 : 640 kb/s
  38. Channel(s)                               : 3 channels
  39. Channel layout                           : L R C
  40. Sampling rate                            : 48.0 kHz
  41. Frame rate                               : 31.250 FPS (1536 SPF)
  42. Compression mode                         : Lossy
  43. Stream size                              : 508 MiB (6%)
  44. Language                                 : Japanese
  45. Service kind                             : Complete Main
  46. Default                                  : Yes
  47. Forced                                   : No
  48. Text #1
  49. ID                                       : 3
  50. Format                                   : PGS
  51. Muxing mode                              : zlib
  52. Codec ID                                 : S_HDMV/PGS
  53. Codec ID/Info                            : Picture based subtitle format used on BDs/HD-DVDs
  54. Language                                 : Chinese
  55. Default                                  : Yes
  56. Forced                                   : No
  57. Text #2
  58. ID                                       : 4
  59. Format                                   : PGS
  60. Muxing mode                              : zlib
  61. Codec ID                                 : S_HDMV/PGS
  62. Codec ID/Info                            : Picture based subtitle format used on BDs/HD-DVDs
  63. Language                                 : Chinese
  64. Default                                  : No
  65. Forced                                   : No
  66. Text #3
  67. ID                                       : 5
  68. Format                                   : PGS
  69. Muxing mode                              : zlib
  70. Codec ID                                 : S_HDMV/PGS
  71. Codec ID/Info                            : Picture based subtitle format used on BDs/HD-DVDs
  72. Language                                 : English
  73. Default                                  : No
  74. Forced                                   : No
  75. Menu
  76. 00:00:00.000                             : en:Chapter 01
  77. 00:05:55.813                             : en:Chapter 02
  78. 00:16:19.770                             : en:Chapter 03
  79. 00:20:04.578                             : en:Chapter 04
  80. 00:21:14.730                             : en:Chapter 05
  81. 00:23:33.953                             : en:Chapter 06
  82. 00:25:52.384                             : en:Chapter 07
  83. 00:32:45.337                             : en:Chapter 08
  84. 00:38:59.252                             : en:Chapter 09
  85. 00:42:38.138                             : en:Chapter 10
  86. 00:46:31.037                             : en:Chapter 11
  87. 00:49:35.973                             : en:Chapter 12
  88. 00:51:17.657                             : en:Chapter 13
  89. 00:56:05.194                             : en:Chapter 14
  90. 00:59:19.264                             : en:Chapter 15
  91. 01:03:19.670                             : en:Chapter 16
  92. 01:05:22.209                             : en:Chapter 17
  93. 01:07:19.785                             : en:Chapter 18
  94. 01:12:05.111                             : en:Chapter 19
  95. 01:13:49.466                             : en:Chapter 20
  96. 01:18:47.638                             : en:Chapter 21
  97. 01:23:24.582                             : en:Chapter 22
  98. 01:32:26.290                             : en:Chapter 23
  99. 01:38:10.174                             : en:Chapter 24
  100. 01:39:59.618                             : en:Chapter 25
  101. 01:41:24.995                             : en:Chapter 26





此处一般会放置磁力链或种子下载链接,不过此链接需要注册会员才能看到,点击“立即注册”
磁力链下载【下载链接仅对注册会员开放,登陆后可见】
BT9527电影天堂 1、BT9527电影天堂提供的BT文件均来源于互联网抓取,只供网友学习交流、技术提升使用。
2、我们遵守BitTorrent点对点协议原则,任何版权问题请联系原资源发布商,我们不处理任何版权纠纷,谢谢!如有争议请联系邮箱:BT9527#hotmail.com(#换成@)
3、如果您发现某页面或地址有错误,请联系站长邮箱BT9527#hotmail.com(#换成@),我们会尽快处理。您的热心是对BT9527电影天堂最大的支持。
4、本站建议去正规影院观看电影以支持电影行业发展。
最新回复 (0)

你可以在 登录 or 注册 后,对此帖发表评论!

返回
发新帖